Парень с того света / The Loneliest Boy in the World (Мартин Оуэн / Martin Owen) [2022, Великобритания, ужасы, комедия, BDRemux 1080p] Dub (Кипарис) + Sub (Rus, Eng) + Original Eng

Reply to topic
 
Author
Message

Faust ®

Gender: Unknown

Longevity: 12 years

Posts: 23187

Reputation: 0 [+] [-]

Faust · Post 16-Jun-2023 10:15

[Quote] 

Парень с того света
The Loneliest Boy in the World

Страна: Великобритания
Жанр: Ужасы, комедия
Год выпуска: 2022
Продолжительность: 01:30:05
Перевод: Профессиональный (дублированный) Кипарис
Субтитры: Русские (forced, full), английские
Оригинальная аудиодорожка: Английский
Режиссер: Мартин Оуэн / Martin Owen
В ролях: Макс Харвуд, Хиро Файнс Тиффин, Сьюзан Уокома, Ивэн Росс, Бен Миллер, Эшли Бенсон, Джейкоб Сарториус, Таллула Роуз Хэддон, Хаммед Анимашон, Алекс Мерфи
Описание: Оливер — обычный одинокий парень, которому хочется найти друзей и любовь. Но как это сделать, если единственное, с кем он общается — это телевизор? Неожиданным образом он находит себе друга… на кладбище. Популярный при жизни красавчик Митч поможет Оливеру справиться с неуверенностью в себе и даст лучшие советы, как покорить любую девушку. Но освободилось ли его собственное сердце от той единственной после смерти?

Тип релиза: BDRemux 1080p
Контейнер: MKV
Видео: MPEG-4 AVC, 1080p, 1920:1080 (16:9), 25995 kbps, 23.976 fps
Аудио 1: АС3, 6 ch, 48 kHz, 384 kbps Русский Dub Кипарис
Аудио 2: DTS-HD MA, 6 ch, 48 kHz, 2440 kbps, 16-bit (DTS Core 6 ch, 48 kHz, 1509 kbps, 16-bit) Английский
Формат субтитров: SRT

MediaInfo

GeneralUnique ID                                : 4647647084331395056082420664848949904 (0x37F1AB160A38953BCA9D18C9C392290)Complete name                            : G:\The.Loneliest.Boy.in.the.World.2022.REMUX.mkvFormat                                   : MatroskaFormat version                           : Version 4File size                                : 17.6 GiBDuration                                 : 1 h 30 minOverall bit rate mode                    : VariableOverall bit rate                         : 27.9 Mb/sEncoded date                             : UTC 2023-06-15 06:10:07Writing application                      : mkvmerge v20.0.0 ('I Am The Sun') 64-bitWriting library                          : libebml v1.3.5 + libmatroska v1.4.8
VideoID : 1Format : AVCFormat/Info : Advanced Video CodecFormat profile : High@L4.1Format settings : CABAC / 4 Ref FramesFormat settings, CABAC : YesFormat settings, Reference frames : 4 framesCodec ID : V_MPEG4/ISO/AVCDuration : 1 h 30 minBit rate mode : VariableBit rate : 25.1 Mb/sMaximum bit rate : 32.0 Mb/sWidth : 1 920 pixelsHeight : 1 080 pixelsDisplay aspect ratio : 16:9Frame rate mode : ConstantFrame rate : 23.976 (24000/1001) FPSColor space : YUVChroma subsampling : 4:2:0Bit depth : 8 bitsScan type : ProgressiveBits/(Pixel*Frame) : 0.504Stream size : 15.8 GiB (90%)Language : EnglishDefault : YesForced : No
Audio #1ID : 2Format : AC-3Format/Info : Audio Coding 3Commercial name : Dolby DigitalCodec ID : A_AC3Duration : 1 h 30 minBit rate mode : ConstantBit rate : 384 kb/sChannel(s) : 6 channelsChannel layout : L R C LFE Ls RsSampling rate : 48.0 kHzFrame rate : 31.250 FPS (1536 SPF)Compression mode : LossyStream size : 247 MiB (1%)Title : Dub КипарисLanguage : RussianService kind : Complete MainDefault : YesForced : No
Audio #2ID : 3Format : DTS XLLFormat/Info : Digital Theater SystemsCommercial name : DTS-HD Master AudioCodec ID : A_DTSDuration : 1 h 30 minBit rate mode : VariableBit rate : 2 440 kb/sChannel(s) : 6 channelsChannel layout : C L R Ls Rs LFESampling rate : 48.0 kHzFrame rate : 93.750 FPS (512 SPF)Bit depth : 16 bitsCompression mode : LosslessStream size : 1.54 GiB (9%)Language : EnglishDefault : NoForced : No
Text #1ID : 4Format : UTF-8Codec ID : S_TEXT/UTF8Codec ID/Info : UTF-8 Plain TextDuration : 29 s 779 msBit rate : 104 b/sCount of elements : 8Stream size : 388 Bytes (0%)Title : forcedLanguage : RussianDefault : YesForced : No
Text #2ID : 5Format : UTF-8Codec ID : S_TEXT/UTF8Codec ID/Info : UTF-8 Plain TextDuration : 1 h 25 minBit rate : 69 b/sCount of elements : 1126Stream size : 43.7 KiB (0%)Language : RussianDefault : NoForced : No
Text #3ID : 6Format : UTF-8Codec ID : S_TEXT/UTF8Codec ID/Info : UTF-8 Plain TextDuration : 1 h 28 minBit rate : 54 b/sCount of elements : 1174Stream size : 35.1 KiB (0%)Language : EnglishDefault : NoForced : No
Menu00:00:00.000 : Chapter 0100:10:25.625 : Chapter 0200:18:18.597 : Chapter 0300:30:05.137 : Chapter 0400:38:45.490 : Chapter 0500:46:28.661 : Chapter 0600:54:32.102 : Chapter 0701:00:42.013 : Chapter 0801:13:04.130 : Chapter 09
[Profile]  [PM] 
Display posts:    
Reply to topic

Current time is: 20-Jul 02:27

All times are UTC + 2



You cannot post new topics in this forum
You cannot reply to topics in this forum
You cannot edit your posts in this forum
You cannot delete your posts in this forum
You cannot vote in polls in this forum
You cannot attach files in this forum
You cannot download files in this forum