Приличное общество / Polite Society (Нида Манзур / Nida Manzoor) [2023, Великобритания, боевик, комедия, BDRemux 1080p] MVO (TVShows) + Sub (Rus, Eng, Fra, Spa) + Original Eng

Reply to topic
 
Author
Message

Faust ®

Gender: Unknown

Longevity: 12 years

Posts: 23217

Reputation: 0 [+] [-]

Faust · Post 16-Jun-2023 10:15

[Quote] 

Приличное общество
Polite Society

Страна: Великобритания
Жанр: Боевик, комедия
Год выпуска: 2023
Продолжительность: 01:44:00
Перевод: Профессиональный (многоголосый закадровый) TVShows
Субтитры: Русские, английские, французские, испанские
Оригинальная аудиодорожка: Aнглийский
Режиссер: Нида Манзур / Nida Manzoor
В ролях: Прия Кансара, Риту Арья, Рену Бриндл, Рекха Джон-Чериян, Серафина Бе, Элла Брукколери, Салли Энн, Дженни Фаннелл, Шона Бабаеми, Шобу Капур
Описание: Риа Хан занимается боевыми искусствами, чтобы стать каскадершей, но взгляды окружающих на ее увлечение были неоднозначными: одни восхищались дерзкими и невероятными трюками, которые Риа удавалось исполнить, а другие насмехались над ее многочисленными неудачными попытками. Но когда ее сестра бросает художественную школу и обручается, Риа решает, что она и ее друзья должны устроить ограбление свадьбы.
Спасибо kro44i за дорожку

Тип релиза: BDRemux 1080p
Контейнер: MKV
Видео: MPEG-4 AVC, 1080p, 1920:1080 (16:9), 35107 kbps, 23.976 fps
Аудио 1: АС3, 6 ch, 48 kHz, 448 kbps Русский MVO TVShows
Аудио 2: DTS-HD MA, 6 ch, 48 kHz, 3693 kbps, 24-bit (DTS Core 6 ch, 48 kHz, 1509 kbps, 24-bit) Английский
Формат субтитров: SRT

MediaInfo

GeneralUnique ID                                : 91740162193205366734464452333828154783 (0x450483364921B9E0D8AA62F76365A59F)Complete name                            : G:\Polite.Society.2023.REMUX.mkvFormat                                   : MatroskaFormat version                           : Version 4File size                                : 28.5 GiBDuration                                 : 1 h 44 minOverall bit rate mode                    : VariableOverall bit rate                         : 39.3 Mb/sEncoded date                             : UTC 2023-06-14 16:24:52Writing application                      : mkvmerge v20.0.0 ('I Am The Sun') 64-bitWriting library                          : libebml v1.3.5 + libmatroska v1.4.8
VideoID : 1Format : AVCFormat/Info : Advanced Video CodecFormat profile : High@L4.1Format settings : CABAC / 2 Ref FramesFormat settings, CABAC : YesFormat settings, Reference frames : 2 framesFormat settings, GOP : M=1, N=10Codec ID : V_MPEG4/ISO/AVCDuration : 1 h 44 minBit rate mode : VariableBit rate : 35.1 Mb/sWidth : 1 920 pixelsHeight : 1 080 pixelsDisplay aspect ratio : 16:9Frame rate mode : ConstantFrame rate : 23.976 (24000/1001) FPSColor space : YUVChroma subsampling : 4:2:0Bit depth : 8 bitsScan type : ProgressiveBits/(Pixel*Frame) : 0.706Stream size : 25.5 GiB (89%)Language : EnglishDefault : YesForced : No
Audio #1ID : 2Format : AC-3Format/Info : Audio Coding 3Commercial name : Dolby DigitalCodec ID : A_AC3Duration : 1 h 43 minBit rate mode : ConstantBit rate : 448 kb/sChannel(s) : 6 channelsChannel layout : L R C LFE Ls RsSampling rate : 48.0 kHzFrame rate : 31.250 FPS (1536 SPF)Compression mode : LossyStream size : 333 MiB (1%)Title : MVO TVShowsLanguage : RussianService kind : Complete MainDefault : YesForced : No
Audio #2ID : 3Format : DTS XLLFormat/Info : Digital Theater SystemsCommercial name : DTS-HD Master AudioCodec ID : A_DTSDuration : 1 h 44 minBit rate mode : VariableBit rate : 3 693 kb/sChannel(s) : 6 channelsChannel layout : C L R Ls Rs LFESampling rate : 48.0 kHzFrame rate : 93.750 FPS (512 SPF)Bit depth : 24 bitsCompression mode : LosslessStream size : 2.68 GiB (9%)Language : EnglishDefault : NoForced : No
Text #1ID : 4Format : UTF-8Codec ID : S_TEXT/UTF8Codec ID/Info : UTF-8 Plain TextDuration : 1 h 37 minBit rate : 79 b/sCount of elements : 1372Stream size : 56.8 KiB (0%)Language : RussianDefault : NoForced : No
Text #2ID : 5Format : UTF-8Codec ID : S_TEXT/UTF8Codec ID/Info : UTF-8 Plain TextDuration : 1 h 37 minBit rate : 53 b/sCount of elements : 1436Stream size : 38.7 KiB (0%)Language : EnglishDefault : NoForced : No
Text #3ID : 6Format : UTF-8Codec ID : S_TEXT/UTF8Codec ID/Info : UTF-8 Plain TextDuration : 1 h 43 minBit rate : 51 b/sCount of elements : 1391Stream size : 39.1 KiB (0%)Language : FrenchDefault : NoForced : No
Text #4ID : 7Format : UTF-8Codec ID : S_TEXT/UTF8Codec ID/Info : UTF-8 Plain TextDuration : 1 h 43 minBit rate : 45 b/sCount of elements : 1295Stream size : 34.2 KiB (0%)Language : SpanishDefault : NoForced : No
Menu00:00:00.000 : en:Chapter 0100:04:54.920 : en:Chapter 0200:10:12.779 : en:Chapter 0300:15:21.295 : en:Chapter 0400:21:24.241 : en:Chapter 0500:27:53.672 : en:Chapter 0600:31:59.042 : en:Chapter 0700:37:34.627 : en:Chapter 0800:42:40.975 : en:Chapter 0900:47:34.143 : en:Chapter 1000:51:31.880 : en:Chapter 1100:59:07.252 : en:Chapter 1201:05:35.014 : en:Chapter 1301:10:11.124 : en:Chapter 1401:15:18.013 : en:Chapter 1501:19:36.355 : en:Chapter 1601:23:12.029 : en:Chapter 1701:27:56.646 : en:Chapter 1801:34:23.992 : en:Chapter 1901:38:16.307 : en:Chapter 20

Скриншоты



[Profile]  [PM] 
Display posts:    
Reply to topic

Current time is: 25-Jul 05:33

All times are UTC + 2



You cannot post new topics in this forum
You cannot reply to topics in this forum
You cannot edit your posts in this forum
You cannot delete your posts in this forum
You cannot vote in polls in this forum
You cannot attach files in this forum
You cannot download files in this forum