Застрелить Элизабет / Shooting Elizabeth (Баз Тейлор / Baz Taylor) [1992, Франция, Бельгия, США, триллер, комедия, WEB-DL 1080p] DVO + Sub Eng + Original Eng

Reply to topic
 
Author
Message

Faust ®

Gender: Unknown

Longevity: 12 years

Posts: 23187

Reputation: 0 [+] [-]

Faust · Post 16-Jun-2023 10:15

[Quote] 

Застрелить Элизабет / Shooting Elizabeth
Страна: Франция, Бельгия, США
Жанр: триллер, комедия
Год выпуска: 1992
Продолжительность: 01:36:18
Перевод: Профессиональный (двухголосый закадровый)
Субтитры: английские
Оригинальная аудиодорожка: английский
Режиссер: Баз Тейлор / Baz Taylor
В ролях: Джефф Голдблюм, Мими Роджерс, Хуан Эчанове, Симон Андреу, Фернандо Гильен Куэрво, Кристина Игерас, Берт Квук, Эрнесто Альтерио, Альберто Хименес, Сантьяго Альварес
Описание: Подкаблучник Говард Пиджеон, измученный и доведенный до крайней точки собственной женой Элизабет, принимает решение убить ее и обрести свободу. Несколько покушений на жизнь супруги заканчиваются полным провалом, и тогда несчастный в браке Говард Пиджеон предлагает Элизабет провести второй медовый месяц где-нибудь на побережье. Он надеется, что в поездке подвернется удачный случай избавиться, наконец, от своей ненавистной половины. Во время путешествия Элизабет таинственным образом исчезает без всякого участия со стороны супруга. Детективы из полиции расследуют необъяснимое исчезновение Элизабет и подозревают Говарда в том, что он убил жену. Говарду придется найти Элизабет живой или мертвой, чтобы отвести от себя подозрения.

Доп. информация: К скачанному с зарубежного трекера WEB-DL 1080p добавлена дорожка с русской озвучкой, взятая из раздачи edich2.
Сэмпл: http://sendfile.su/1669895
Тип релиза: WEB-DL 1080p
Контейнер: MKV
Видео: AVC, 1920x1080, 16:9, 23.976 fps, 10000 kbps
Аудио: AC3 Dolby Digital, 48 kHz, 2/0 ch, 192 kbps, Russian MVO
Аудио 2: E-AC3 Dolby Digital, 48 kHz, 2/0 ch, 224 kbps, Original
Формат субтитров: softsub (SRT)

MediaInfo

GeneralUnique ID                                : 151607951370248199651080441986359143346 (0x720EA11C1B2F89871775D7CF37A2ABB2)Complete name                            : C:\Downloads\Shooting.Elizabeth.1992.1080p.AMZN.WEB-DL.mkvFormat                                   : MatroskaFormat version                           : Version 4File size                                : 6.90 GiBDuration                                 : 1 h 36 minOverall bit rate                         : 10.3 Mb/sFrame rate                               : 23.976 FPSEncoded date                             : 2023-06-11 02:38:24 UTCWriting application                      : mkvmerge v38.0.0 ('The Silent Type') 64-bitWriting library                          : libebml v1.3.9 + libmatroska v1.5.2
VideoID : 1Format : AVCFormat/Info : Advanced Video CodecFormat profile : High@L4Format settings : CABAC / 4 Ref FramesFormat settings, CABAC : YesFormat settings, Reference frames : 4 framesCodec ID : V_MPEG4/ISO/AVCDuration : 1 h 36 minBit rate mode : ConstantBit rate : 10 000 kb/sWidth : 1 920 pixelsHeight : 1 080 pixelsDisplay aspect ratio : 16:9Frame rate mode : ConstantFrame rate : 23.976 (24000/1001) FPSColor space : YUVChroma subsampling : 4:2:0Bit depth : 8 bitsScan type : ProgressiveBits/(Pixel*Frame) : 0.201Stream size : 6.62 GiB (96%)Default : YesForced : NoColor range : LimitedColor primaries : BT.709Transfer characteristics : BT.709Matrix coefficients : BT.709
Audio #1ID : 2Format : AC-3Format/Info : Audio Coding 3Commercial name : Dolby DigitalCodec ID : A_AC3Duration : 1 h 36 minBit rate mode : ConstantBit rate : 192 kb/sChannel(s) : 2 channelsChannel layout : L RSampling rate : 48.0 kHzFrame rate : 31.250 FPS (1536 SPF)Compression mode : LossyStream size : 132 MiB (2%)Language : RussianService kind : Complete MainDefault : YesForced : No
Audio #2ID : 3Format : E-AC-3Format/Info : Enhanced AC-3Commercial name : Dolby Digital PlusCodec ID : A_EAC3Duration : 1 h 36 minBit rate mode : ConstantBit rate : 224 kb/sChannel(s) : 2 channelsChannel layout : L RSampling rate : 48.0 kHzFrame rate : 31.250 FPS (1536 SPF)Compression mode : LossyStream size : 154 MiB (2%)Service kind : Complete MainDefault : NoForced : No
Text #1ID : 4Format : UTF-8Codec ID : S_TEXT/UTF8Codec ID/Info : UTF-8 Plain TextDuration : 1 h 33 minBit rate : 92 b/sFrame rate : 0.334 FPSCount of elements : 1872Stream size : 63.2 KiB (0%)Language : EnglishDefault : NoForced : No
Text #2ID : 5Format : UTF-8Codec ID : S_TEXT/UTF8Codec ID/Info : UTF-8 Plain TextDuration : 1 h 33 minBit rate : 95 b/sFrame rate : 0.347 FPSCount of elements : 1945Stream size : 65.2 KiB (0%)Title : SDHLanguage : EnglishDefault : NoForced : No

Скриншоты

[Profile]  [PM] 
Display posts:    
Reply to topic

Current time is: 20-Jul 02:25

All times are UTC + 2



You cannot post new topics in this forum
You cannot reply to topics in this forum
You cannot edit your posts in this forum
You cannot delete your posts in this forum
You cannot vote in polls in this forum
You cannot attach files in this forum
You cannot download files in this forum