Душа тишины / Тишина / The Quiet (Джеми Бэббит / Jamie Babbit) [2005, США, триллер, драма, WEB-DL 1080p] [Open Matte] MVO + DVO (Интерфильм) + Sub Eng + Original Eng

Reply to topic
 
Author
Message

Faust ®

Gender: Unknown

Longevity: 12 years

Posts: 23217

Reputation: 0 [+] [-]

Faust · Post 16-Jun-2023 10:15

[Quote] 

Душа тишины / Тишина / The Quiet---Open Matte--- Страна: США
Студия: Andrea Sperling Productions, Burnt Orange Productions, Holly Wiersma Productions
Жанр: триллер, драма
Год выпуска: 2005
Продолжительность: 01:36:16
Перевод: Профессиональный (многоголосый закадровый)
Перевод: Любительский (двухголосый закадровый) - Интерфильм
Субтитры: английские (полные, для слабослышащих), французские, испанские, португальские *(европейские, бразильские), арабские, болгарские, боснийские, венгерские, вьетнамские, голландские, греческие, датские, индонезийские, иврит, китайские (упрощённые, традиционные), польские, румынские, сербские, словенские, сингальские, тайские, турецкие, фарси, финские, чешские, шведские, эстонские
Оригинальная аудиодорожка: английский

Режиссер: Джеми Бэббит / Jamie Babbit
В ролях: Элиша Катберт, Камилла Белль, Эди Фалько, Мартин Донован, Шон Эшмор, Кэти Миксон, Дэвид Галлахер, Шеннон Мари Вудворд, Мария Кэш
Описание: Глухонемая девушка Дот вынуждена жить у своих крёстных родителей Пола и Оливии Дир и их дочери Нины, местной чирлидерши и самой популярной девушки. Все члены семьи, а также школьные друзья Нины испытывают странное очарование тихой Дот и начинают доверять ей самые тёмные свои секреты . Дот молчаливо выслушивает душеизлияния своих новых «друзей», которые не подозревают, что самая тёмная тайна, которую хранит девушка — её собственная, а не их--
Исходник - The.Quiet.2005.1080p.AMZN.WEB-DL.DDP2.0.H.264-ETHiCS.mkv. Добавлены русские дорожки с кинозала. Немного подправлены без пересжатия.
--Сэмпл | Кинопоиск | IMDb
Тип релиза: WEB-DL 1080p
Контейнер: MKV
Видео: 1920x1080 (16:9), 23.976 fps, AVC, 11883 kbps, 0.234 bits/pixel
Аудио 1: Russian, 48.0 KHz, AC3, 2 ch, 192 Kbps - MVO
Аудио 2: Russian, 48.0 KHz, AC3, 6 ch, 448 Kbps - DVO Интерфильм
Аудио 3: English, 48.0 KHz, AC3+, 2 ch, 224 Kbps - Original WEB-DL 2.0
Аудио 4: English, 48.0 KHz, AC3, 6 ch, 448 Kbps - Original DVD 5.1
Формат субтитров: softsub (SRT)

MediaInfo

ОбщееУникальный идентификатор                 : 213571940596611756534657146064321142822 (0xA0AC75A638BC26D0BDF996A61F806026)Полное имя                               : U:\Vremyanka\The.Quiet.2005.WEB-DL.1080p.Open.Matte.mkvФормат                                   : MatroskaВерсия формата                           : Version 4Размер файла                             : 8,88 ГбайтПродолжительность                        : 1 ч. 36 м.Общий поток                              : 13,2 Мбит/секНазвание фильма                          : The.Quiet.2005.WEB-DL.1080p.Open.Matte_AllFilms_tekoДата кодирования                         : UTC 2023-06-08 00:51:31Программа кодирования                    : mkvmerge v9.5.0 ('Quiet Fire') 64bitБиблиотека кодирования                   : libebml v1.3.4 + libmatroska v1.4.5Обложка                                  : YesAttachments                              : The.Quiet.2005.DVD.jpg / The.Quiet.2005.DVD.Cover.jpg / The.Quiet.2005.DVD.Print.jpg / The.Quiet.2005.Afisha.jpg
ВидеоИдентификатор : 1Формат : AVCФормат/Информация : Advanced Video CodecПрофиль формата : High@L4Настройки формата : CABAC / 4 Ref FramesПараметр CABAC формата : ДаПараметр RefFrames формата : 4 кадраИдентификатор кодека : V_MPEG4/ISO/AVCПродолжительность : 1 ч. 36 м.Битрейт : 11,9 Мбит/секШирина : 1920 пикселейВысота : 1080 пикселейСоотношение сторон : 16:9Режим частоты кадров : ПостоянныйЧастота кадров : 23,976 (24000/1001) кадра/секЦветовое пространство : YUVСубдискретизация насыщенности : 4:2:0Битовая глубина : 8 битТип развёртки : ПрогрессивнаяБит/(Пиксели*Кадры) : 0.239Размер потока : 7,99 Гбайт (90%)Заголовок : The.Quiet.2005.WEB-DL.1080p.Open.MatteЯзык : EnglishDefault : ДаForced : НетЦветовой диапазон : LimitedОсновные цвета : BT.709Характеристики трансфера : BT.709Коэффициенты матрицы : BT.709
Аудио #1Идентификатор : 2Формат : AC-3Формат/Информация : Audio Coding 3Коммерческое название : Dolby DigitalИдентификатор кодека : A_AC3Продолжительность : 1 ч. 36 м.Вид битрейта : ПостоянныйБитрейт : 192 Кбит/секКаналы : 2 каналаChannelLayout : L RЧастота : 48,0 КГцЧастота кадров : 31,250 кадров/сек (1536 SPF)Метод сжатия : С потерямиРазмер потока : 132 Мбайт (1%)Заголовок : MVOЯзык : RussianServiceKind/String : Complete MainDefault : ДаForced : Нет
Аудио #2Идентификатор : 3Формат : AC-3Формат/Информация : Audio Coding 3Коммерческое название : Dolby DigitalИдентификатор кодека : A_AC3Продолжительность : 1 ч. 36 м.Вид битрейта : ПостоянныйБитрейт : 448 Кбит/секКаналы : 6 каналовChannelLayout : L R C LFE Ls RsЧастота : 48,0 КГцЧастота кадров : 31,250 кадров/сек (1536 SPF)Метод сжатия : С потерямиРазмер потока : 308 Мбайт (3%)Заголовок : DVO ИнтерфильмЯзык : RussianServiceKind/String : Complete MainDefault : НетForced : Нет
Аудио #3Идентификатор : 4Формат : E-AC-3Формат/Информация : Enhanced AC-3Коммерческое название : Dolby Digital PlusИдентификатор кодека : A_EAC3Продолжительность : 1 ч. 36 м.Вид битрейта : ПостоянныйБитрейт : 224 Кбит/секКаналы : 2 каналаChannelLayout : L RЧастота : 48,0 КГцЧастота кадров : 31,250 кадров/сек (1536 SPF)Метод сжатия : С потерямиРазмер потока : 154 Мбайт (2%)Заголовок : Original WEB-DL 2.0Язык : EnglishServiceKind/String : Complete MainDefault : НетForced : Нет
Аудио #4Идентификатор : 5Формат : AC-3Формат/Информация : Audio Coding 3Коммерческое название : Dolby DigitalИдентификатор кодека : A_AC3Продолжительность : 1 ч. 36 м.Вид битрейта : ПостоянныйБитрейт : 448 Кбит/секКаналы : 6 каналовChannelLayout : L R C LFE Ls RsЧастота : 48,0 КГцЧастота кадров : 31,250 кадров/сек (1536 SPF)Метод сжатия : С потерямиРазмер потока : 308 Мбайт (3%)Заголовок : Original DVD 5.1Язык : EnglishServiceKind/String : Complete MainDefault : НетForced : Нет
Текст #1Идентификатор : 6Формат : UTF-8Идентификатор кодека : S_TEXT/UTF8Идентификатор кодека/Информация : UTF-8 Plain TextПродолжительность : 1 ч. 29 м.Битрейт : 49 бит/секElementCount : 1095Размер потока : 32,8 Кбайт (0%)Заголовок : English FullЯзык : EnglishDefault : НетForced : Нет
Текст #2Идентификатор : 7Формат : UTF-8Идентификатор кодека : S_TEXT/UTF8Идентификатор кодека/Информация : UTF-8 Plain TextПродолжительность : 1 ч. 32 м.Битрейт : 51 бит/секElementCount : 1163Размер потока : 34,8 Кбайт (0%)Заголовок : English SDHЯзык : EnglishDefault : НетForced : Нет
Текст #3Идентификатор : 8Формат : UTF-8Идентификатор кодека : S_TEXT/UTF8Идентификатор кодека/Информация : UTF-8 Plain TextПродолжительность : 1 ч. 30 м.Битрейт : 51 бит/секElementCount : 959Размер потока : 34,2 Кбайт (0%)Заголовок : FrenchЯзык : FrenchDefault : НетForced : Нет
Текст #4Идентификатор : 9Формат : UTF-8Идентификатор кодека : S_TEXT/UTF8Идентификатор кодека/Информация : UTF-8 Plain TextПродолжительность : 1 ч. 29 м.Битрейт : 50 бит/секElementCount : 961Размер потока : 33,2 Кбайт (0%)Заголовок : SpanishЯзык : SpanishDefault : НетForced : Нет
Текст #5Идентификатор : 10Формат : UTF-8Идентификатор кодека : S_TEXT/UTF8Идентификатор кодека/Информация : UTF-8 Plain TextПродолжительность : 1 ч. 30 м.Битрейт : 49 бит/секElementCount : 931Размер потока : 32,4 Кбайт (0%)Заголовок : Portuguese IberianЯзык : PortugueseDefault : НетForced : Нет
Текст #6Идентификатор : 11Формат : UTF-8Идентификатор кодека : S_TEXT/UTF8Идентификатор кодека/Информация : UTF-8 Plain TextПродолжительность : 1 ч. 29 м.Битрейт : 44 бит/секElementCount : 834Размер потока : 29,6 Кбайт (0%)Заголовок : Portuguese BrazilianЯзык : PortugueseDefault : НетForced : Нет
Текст #7Идентификатор : 12Формат : UTF-8Идентификатор кодека : S_TEXT/UTF8Идентификатор кодека/Информация : UTF-8 Plain TextПродолжительность : 1 ч. 30 м.Битрейт : 58 бит/секElementCount : 870Размер потока : 38,7 Кбайт (0%)Заголовок : ArabicЯзык : ArabicDefault : НетForced : Нет
Текст #8Идентификатор : 13Формат : UTF-8Идентификатор кодека : S_TEXT/UTF8Идентификатор кодека/Информация : UTF-8 Plain TextПродолжительность : 1 ч. 29 м.Битрейт : 86 бит/секElementCount : 965Размер потока : 56,7 Кбайт (0%)Заголовок : BulgarianЯзык : BulgarianDefault : НетForced : Нет
Текст #9Идентификатор : 14Формат : UTF-8Идентификатор кодека : S_TEXT/UTF8Идентификатор кодека/Информация : UTF-8 Plain TextПродолжительность : 1 ч. 29 м.Битрейт : 45 бит/секElementCount : 958Размер потока : 29,8 Кбайт (0%)Заголовок : BosnianЯзык : BosnianDefault : НетForced : Нет
Текст #10Идентификатор : 15Формат : UTF-8Идентификатор кодека : S_TEXT/UTF8Идентификатор кодека/Информация : UTF-8 Plain TextПродолжительность : 1 ч. 29 м.Битрейт : 53 бит/секElementCount : 955Размер потока : 35,6 Кбайт (0%)Заголовок : HungarianЯзык : HungarianDefault : НетForced : Нет
Текст #11Идентификатор : 16Формат : UTF-8Идентификатор кодека : S_TEXT/UTF8Идентификатор кодека/Информация : UTF-8 Plain TextПродолжительность : 1 ч. 30 м.Битрейт : 75 бит/секElementCount : 975Размер потока : 49,7 Кбайт (0%)Заголовок : VietnameseЯзык : VietnameseDefault : НетForced : Нет
Текст #12Идентификатор : 17Формат : UTF-8Идентификатор кодека : S_TEXT/UTF8Идентификатор кодека/Информация : UTF-8 Plain TextПродолжительность : 1 ч. 30 м.Битрейт : 45 бит/секElementCount : 942Размер потока : 30,2 Кбайт (0%)Заголовок : DutchЯзык : DutchDefault : НетForced : Нет
Текст #13Идентификатор : 18Формат : UTF-8Идентификатор кодека : S_TEXT/UTF8Идентификатор кодека/Информация : UTF-8 Plain TextПродолжительность : 1 ч. 30 м.Битрейт : 73 бит/секElementCount : 863Размер потока : 48,3 Кбайт (0%)Заголовок : GreekЯзык : GreekDefault : НетForced : Нет
Текст #14Идентификатор : 19Формат : UTF-8Идентификатор кодека : S_TEXT/UTF8Идентификатор кодека/Информация : UTF-8 Plain TextПродолжительность : 1 ч. 30 м.Битрейт : 41 бит/секElementCount : 681Размер потока : 27,7 Кбайт (0%)Заголовок : DanishЯзык : DanishDefault : НетForced : Нет
Текст #15Идентификатор : 20Формат : UTF-8Идентификатор кодека : S_TEXT/UTF8Идентификатор кодека/Информация : UTF-8 Plain TextПродолжительность : 1 ч. 30 м.Битрейт : 58 бит/секElementCount : 960Размер потока : 38,6 Кбайт (0%)Заголовок : IndonesianЯзык : IndonesianDefault : НетForced : Нет
Текст #16Идентификатор : 21Формат : UTF-8Идентификатор кодека : S_TEXT/UTF8Идентификатор кодека/Информация : UTF-8 Plain TextПродолжительность : 1 ч. 31 м.Битрейт : 86 бит/секElementCount : 839Размер потока : 58,3 Кбайт (0%)Заголовок : HebrewЯзык : HebrewDefault : НетForced : Нет
Текст #17Идентификатор : 22Формат : UTF-8Идентификатор кодека : S_TEXT/UTF8Идентификатор кодека/Информация : UTF-8 Plain TextПродолжительность : 1 ч. 30 м.Битрейт : 43 бит/секElementCount : 936Размер потока : 28,6 Кбайт (0%)Заголовок : Chinese SimplifiedЯзык : ChineseDefault : НетForced : Нет
Текст #18Идентификатор : 23Формат : UTF-8Идентификатор кодека : S_TEXT/UTF8Идентификатор кодека/Информация : UTF-8 Plain TextПродолжительность : 1 ч. 30 м.Битрейт : 43 бит/секElementCount : 936Размер потока : 28,7 Кбайт (0%)Заголовок : Chinese TraditionalЯзык : ChineseDefault : НетForced : Нет
Текст #19Идентификатор : 24Формат : UTF-8Идентификатор кодека : S_TEXT/UTF8Идентификатор кодека/Информация : UTF-8 Plain TextПродолжительность : 1 ч. 30 м.Битрейт : 44 бит/секElementCount : 847Размер потока : 29,4 Кбайт (0%)Заголовок : PolishЯзык : PolishDefault : НетForced : Нет
Текст #20Идентификатор : 25Формат : UTF-8Идентификатор кодека : S_TEXT/UTF8Идентификатор кодека/Информация : UTF-8 Plain TextПродолжительность : 1 ч. 30 м.Битрейт : 44 бит/секElementCount : 962Размер потока : 29,4 Кбайт (0%)Заголовок : RomanianЯзык : RomanianDefault : НетForced : Нет
Текст #21Идентификатор : 26Формат : UTF-8Идентификатор кодека : S_TEXT/UTF8Идентификатор кодека/Информация : UTF-8 Plain TextПродолжительность : 1 ч. 29 м.Битрейт : 40 бит/секElementCount : 812Размер потока : 26,5 Кбайт (0%)Заголовок : SerbianЯзык : SerbianDefault : НетForced : Нет
Текст #22Идентификатор : 27Формат : UTF-8Идентификатор кодека : S_TEXT/UTF8Идентификатор кодека/Информация : UTF-8 Plain TextПродолжительность : 1 ч. 29 м.Битрейт : 43 бит/секElementCount : 959Размер потока : 28,5 Кбайт (0%)Заголовок : SlovenianЯзык : SlovenianDefault : НетForced : Нет
Текст #23Идентификатор : 28Формат : UTF-8Идентификатор кодека : S_TEXT/UTF8Идентификатор кодека/Информация : UTF-8 Plain TextПродолжительность : 1 ч. 29 м.Битрейт : 132 бит/секElementCount : 957Размер потока : 87,6 Кбайт (0%)Заголовок : SinhaleseЯзык : SinhalaDefault : НетForced : Нет
Текст #24Идентификатор : 29Формат : UTF-8Идентификатор кодека : S_TEXT/UTF8Идентификатор кодека/Информация : UTF-8 Plain TextПродолжительность : 1 ч. 32 м.Битрейт : 109 бит/секElementCount : 1163Размер потока : 74,7 Кбайт (0%)Заголовок : ThaiЯзык : ThaiDefault : НетForced : Нет
Текст #25Идентификатор : 30Формат : UTF-8Идентификатор кодека : S_TEXT/UTF8Идентификатор кодека/Информация : UTF-8 Plain TextПродолжительность : 1 ч. 30 м.Битрейт : 54 бит/секElementCount : 954Размер потока : 36,0 Кбайт (0%)Заголовок : TurkishЯзык : TurkishDefault : НетForced : Нет
Текст #26Идентификатор : 31Формат : UTF-8Идентификатор кодека : S_TEXT/UTF8Идентификатор кодека/Информация : UTF-8 Plain TextПродолжительность : 1 ч. 30 м.Битрейт : 70 бит/секElementCount : 940Размер потока : 46,5 Кбайт (0%)Заголовок : PersianЯзык : PersianDefault : НетForced : Нет
Текст #27Идентификатор : 32Формат : UTF-8Идентификатор кодека : S_TEXT/UTF8Идентификатор кодека/Информация : UTF-8 Plain TextПродолжительность : 1 ч. 30 м.Битрейт : 46 бит/секElementCount : 781Размер потока : 30,8 Кбайт (0%)Заголовок : FinnishЯзык : FinnishDefault : НетForced : Нет
Текст #28Идентификатор : 33Формат : UTF-8Идентификатор кодека : S_TEXT/UTF8Идентификатор кодека/Информация : UTF-8 Plain TextПродолжительность : 1 ч. 30 м.Битрейт : 48 бит/секElementCount : 953Размер потока : 32,3 Кбайт (0%)Заголовок : CzechЯзык : CzechDefault : НетForced : Нет
Текст #29Идентификатор : 34Формат : UTF-8Идентификатор кодека : S_TEXT/UTF8Идентификатор кодека/Информация : UTF-8 Plain TextПродолжительность : 1 ч. 30 м.Битрейт : 46 бит/секElementCount : 687Размер потока : 31,1 Кбайт (0%)Заголовок : SwedishЯзык : SwedishDefault : НетForced : Нет
Текст #30Идентификатор : 35Формат : UTF-8Идентификатор кодека : S_TEXT/UTF8Идентификатор кодека/Информация : UTF-8 Plain TextПродолжительность : 1 ч. 29 м.Битрейт : 44 бит/секElementCount : 938Размер потока : 29,6 Кбайт (0%)Заголовок : EstonianЯзык : EstonianDefault : НетForced : Нет
Релиз группы:
--
[Profile]  [PM] 
Display posts:    
Reply to topic

Current time is: 25-Jul 06:15

All times are UTC + 2



You cannot post new topics in this forum
You cannot reply to topics in this forum
You cannot edit your posts in this forum
You cannot delete your posts in this forum
You cannot vote in polls in this forum
You cannot attach files in this forum
You cannot download files in this forum