Последняя сделка / The Last Deal (Джонатан Салеми / Jonathan Salemi) [2023, США, Триллер, криминал, боевик, WEB-DL 1080p] MVO (Jaskier) + Sub Eng + Original Eng

Reply to topic
 
Author
Message

Faust ®

Gender: Unknown

Longevity: 12 years

Posts: 23187

Reputation: 0 [+] [-]

Faust · Post 16-Jun-2023 10:15

[Quote] 

Последняя сделка / The Last Deal- Страна: США
Студия: Bohemia Group Originals, L.A.N.E. 38
Жанр: Триллер, криминал, боевик
Год выпуска: 2023
Продолжительность: 01:30:54-Перевод: Профессиональный (многоголосый закадровый)
Jaskier
Субтитры: Английские
Оригинальная аудиодорожка: английский-Режиссер: Джонатан Салеми / Jonathan Salemi-В ролях: Энтони Молинари, Мистер Фицджералд, Джиджи Гастин, Джеймс Логан (II), Сала Бэйкер, Коннер Флойд, Одра Ван Хис, Майк Фергюсон, Эддисон Боумен, София Массон, Кларк Мур (II), Линда Бурзински, Кенни Джонстон, Джеффри Лорен, Элиана Саенз, Эрик Энтони Руссо, Адам Марциновски, Джон Циоффи, Тим Уиллис, Джамиль Зрайкат, Орион МакКэйб, Эйприл Лэнг
Описание: Когда марихуана становится легальной, торговца каннабисом с черного рынка выдавливают из бизнеса, и он вынужден заключить последнюю сделку с людьми, которым он должен меньше всего доверять.
Сэмпл: https://www.sendspace.com/file/4ydijw-Релиз от New-Team@JNS82-Тип релиза: WEB-DL 1080p
Контейнер: MKV
Видео: MPEG-4 AVC, 1920x1080 (16:9), 6017 kb/s kb/s, 23.976 fps
Аудио 1: 48.0 kHz, AC3, 6 ch, 384 Кбит/с | Rus
Аудио 2: 48.0 kHz, E-AC3, 6 ch, 640 Кбит/с| ENG

MediaInfo

General
Complete name : Downloads\The.Last.Deal.2023.1080p.AMZN_от New-Team_JNS82.mkv Format : Matroska Format version : Version 4 / Version 2 File size : 4.47 GiB Duration : 1 h 30 min Overall bit rate : 7 043 kb/s Writing application : mkvmerge v59.0.0 ('Shining Star') 64-bit Writing library : libebml v1.4.2 + libmatroska v1.6.4 Video #1 ID : 1 Format : AVC Format/Info : Advanced Video Codec Format profile : High@L4 Format settings : CABAC / 4 Ref Frames Format settings, CABAC : Yes Format settings, ReFrames : 4 frames Codec ID : V_MPEG4/ISO/AVC Duration : 1 h 30 min Bit rate mode : Constant Bit rate : 6 017 kb/s Nominal bit rate : 10 000 kb/s Width : 1 920 pixels Height : 1 080 pixels Display aspect ratio : 16:9 Frame rate mode : Constant Frame rate : 23.976 (24000/1001) FPS Color space : YUV Chroma subsampling : 4:2:0 Bit depth : 8 bits Scan type : Progressive Bits/(Pixel*Frame) : 0.121 Stream size : 3.82 GiB (85%) Title : NT Default : Yes Forced : No Color range : Limited Color primaries : BT.709 Transfer characteristics : BT.709 Matrix coefficients : BT.709 Audio #2 ID : 2 Format : AC-3 Format/Info : Audio Coding 3 Codec ID : A_AC3 Duration : 1 h 30 min Bit rate mode : Constant Bit rate : 384 kb/s Channel(s) : 6 channels Channel positions : Front: L C R, Side: L R, LFE Sampling rate : 48.0 kHz Frame rate : 31.250 FPS (1536 SPF) Bit depth : 16 bits Compression mode : Lossy Stream size : 250 MiB (5%) Title : MVO - Jaskier Language : Russian Service kind : Complete Main Default : Yes Forced : No Audio #3 ID : 3 Format : E-AC-3 Format/Info : Enhanced Audio Coding 3 Codec ID : A_EAC3 Duration : 1 h 30 min Bit rate mode : Constant Bit rate : 640 kb/s Channel(s) : 6 channels Channel positions : Front: L C R, Side: L R, LFE Sampling rate : 48.0 kHz Frame rate : 187.500 FPS (256 SPF) Compression mode : Lossy Stream size : 416 MiB (9%) Language : English Service kind : Complete Main Default : No Forced : No Text #4 ID : 4 Format : UTF-8 Codec ID : S_TEXT/UTF8 Codec ID/Info : UTF-8 Plain Text Duration : 1 h 26 min Bit rate : 54 b/s Count of elements : 1158 Stream size : 34.3 KiB (0%) Language : English Default : No Forced : No Text #5 ID : 5 Format : UTF-8 Codec ID : S_TEXT/UTF8 Codec ID/Info : UTF-8 Plain Text Duration : 1 h 30 min Bit rate : 71 b/s Count of elements : 1840 Stream size : 47.3 KiB (0%) Title : SDH Language : English Default : No Forced : No

Скриншоты

[Profile]  [PM] 
Display posts:    
Reply to topic

Current time is: 20-Jul 03:15

All times are UTC + 2



You cannot post new topics in this forum
You cannot reply to topics in this forum
You cannot edit your posts in this forum
You cannot delete your posts in this forum
You cannot vote in polls in this forum
You cannot attach files in this forum
You cannot download files in this forum