Зловещие мертвецы 3: Армия тьмы / Army of Darkness (Сэм Рэйми /Sam Raimi) [1992, США, ужасы, фэнтези, боевик, комедия, WEB-DL 576p] [Режиссёрская версия / Director\'s Cut] [Fullscreen] MVO (СТС)

Reply to topic
 
Author
Message

Satyr ®

Gender: Unknown

Longevity: 15 years

Posts: 22031

Reputation: 56 [+] [-]

Satyr · Post 16-Jun-2023 14:20

[Quote] 

Зловещие мертвецы 3: Армия тьмы / Army of Darkness
[Fullscreen]
[Director's Cut]
- Страна: США
Жанр: ужасы, фэнтези, боевик, комедия
Год выпуска: 1992
Продолжительность: 01:32:23-Перевод: Профессиональный (многоголосый закадровый) СТС
Субтитры: нет
Оригинальная аудиодорожка: нет-Режиссер: Сэм Рэйми-В ролях: Брюс Кэмпбелл, Эмбет Дэвидц, Маркус Гилберт, Иан Эберкромби, Ричард Гроув, Тимоти Пэтрик Куилл, Майкл Эрл Рид, Бриджет Фонда и т.д.-Описание: Благодаря козням сил Зла, герой фильма, вооруженный бензопилой и дробовиком, попадает в Англию времен короля Артура. Ему предстоит сразиться с армией мертвецов, возглавляемой безжалостным демоном - его собственным двойником! Единственный способ вернуться домой - найти таинственную древнюю книгу "Некрономикон", с помощью которой у него появится шанс отправить легионы мертвецов в ад навсегда.-Дополнительная информация: Исходная вебка выкачана с онлайн-кинотеатра "MoreTV", обработке не подвергалась.-imdb | kinopoisk | Сэмпл-Качество видео: WEB-DL 576p [MORE]
Формат видео: MKV
Видео: AVC, 720x576, 25.000 fps, ~3 489 Кбит/сек
Аудио: Russian, AAC, 48.0 KHz, 2 ch, ~192 Кбит/сек-

Скриншоты



MediaInfo

Complete name               : Army.of.Darkness.1992.FS.MORE.576p-SOFCJ.mkv
Format                      : Matroska
Format version              : Version 2
File size                   : 2.38 GiB
Duration                    : 1 h 32 min
Overall bit rate            : 3 681 kb/s
Frame rate                  : 25.000 FPS
Movie name                  : Army.of.Darkness.1992.FS.MORE.576p-SOFCJ
Encoded date                : 2023-06-11 15:58:15 UTC
Writing application         : mkvmerge v43.0.0 ('The Quartermaster') 64-bit
Writing library             : libebml v1.3.10 + libmatroska v1.5.2
Cover                       : Yes
Attachments                 : cover.jpg
Video
ID                          : 1
Format                      : AVC
Format/Info                 : Advanced Video Codec
Format profile              : High@L4.1
Format settings             : CABAC / 5 Ref Frames
Format settings, CABAC      : Yes
Format settings, Reference  : 5 frames
Format settings, GOP        : M=4, N=50
Codec ID                    : V_MPEG4/ISO/AVC
Duration                    : 1 h 32 min
Bit rate                    : 3 489 kb/s
Width                       : 720 pixels
Height                      : 576 pixels
Display aspect ratio        : 5:4
Frame rate mode             : Constant
Frame rate                  : 25.000 FPS
Standard                    : PAL
Color space                 : YUV
Chroma subsampling          : 4:2:0
Bit depth                   : 8 bits
Scan type                   : Progressive
Bits/(Pixel*Frame)          : 0.336
Stream size                 : 2.25 GiB (95%)
Title                       : [WEB-DL More by SOFCJ]
Language                    : English
Default                     : Yes
Forced                      : No
Audio
ID                          : 2
Format                      : AAC LC
Format/Info                 : Advanced Audio Codec Low Complexity
Codec ID                    : A_AAC-2
Duration                    : 1 h 32 min
Bit rate                    : 192 kb/s
Channel(s)                  : 2 channels
Channel layout              : L R
Sampling rate               : 48.0 kHz
Frame rate                  : 46.875 FPS (1024 SPF)
Compression mode            : Lossy
Stream size                 : 125 MiB (5%)
Title                       : MVO [CTC]
Language                    : Russian
Default                     : Yes
Forced                      : No
[Profile]  [PM] 
Display posts:    
Reply to topic

Current time is: 20-Jul 03:14

All times are UTC + 2



You cannot post new topics in this forum
You cannot reply to topics in this forum
You cannot edit your posts in this forum
You cannot delete your posts in this forum
You cannot vote in polls in this forum
You cannot attach files in this forum
You cannot download files in this forum