Старый Генри / Old Henry (Потси Пончироли / Potsy Ponciroli) [2021, США, вестерн, боевик, DVD5] MVO + Original Eng

Reply to topic
 
Author
Message

Faust ®

Gender: Unknown

Longevity: 12 years

Posts: 23187

Reputation: 0 [+] [-]

Faust · Post 16-Jun-2023 18:25

[Quote] 

Старый Генри / Old Henry
Страна: США
Студия: Shout! Studios, Hideout Pictures
Жанр: вестерн, боевик
Год выпуска: 2021
Продолжительность: 01:34:46
Перевод: Профессиональный (многоголосый, закадровый)
Субтитры: нет
Оригинальная аудиодорожка: английская
Режиссер: Потси Пончироли / Potsy Ponciroli
В ролях: Тим Блейк Нельсон, Скотт Хэйз, Гэвин Льюис, Трэйси Эдкинс, Стивен Дорфф, Ричард Спейт мл., Максимино Арсиньега, Брэд Картер, Кент Шелтон
Описание: Генри и его сын приютили раненого человека с сумкой, набитой деньгами. Когда по кровавому следу приходит банда вооруженных убийц, им приходится держать оборону. Каждый выстрел Генри убеждает бандитов, что тихий фермер не всю жизнь возделывал землю. Тень тёмного прошлого поглотит всех, кто направит свой револьвер на него.
Дополнительные материалы: Галерея, Главные герои, Ролик, Фильмографии
Меню: есть, статичное
Сэмпл
Тип релиза: DVD5
Контейнер: DVD-Video
Видео: PAL 16:9 (720x576) MPEG Video, 25,000 кадр/сек, 4908 Кбит/сек
Аудио: Russian (Dolby AC-3, 6 ch) 448 Кбит/сек, 48.0 КГц, Кипарис
Аудио 2: English (Dolby AC-3, 6 ch) 448 Кбит/сек, 48.0 КГц

DVDInfo

Title: OLD_HENRY
Size: 4.12 Gb ( 4 321 958,00 KBytes ) - DVD-5
Enabled regions: 1, 2, 3, 4, 5, 6, 7, 8
VTS_01 :
Play Length: 00:00:15
Video: PAL 4:3 (720x576) VBR
Audio:
Not specified (Dolby AC3, 2 ch)
VTS_02 :
Play Length: 00:02:30
Video: PAL 16:9 (720x576) VBR, Auto Letterboxed
Audio:
Russian (Dolby AC3, 2 ch)
English (Dolby AC3, 2 ch)
Subtitles:
English
VTS_03 :
Play Length: 00:00:50
Video: PAL 16:9 (720x576) VBR, Auto Letterboxed
Audio:
Russian (Dolby AC3, 2 ch)
English (Dolby AC3, 2 ch)
Subtitles:
Not specified
VTS_04 :
Play Length: 01:34:45
Video: PAL 16:9 (720x576) VBR, Auto Letterboxed
Audio:
Russian (Dolby AC3, 6 ch)
English (Dolby AC3, 6 ch)
Subtitles:
Not specified
VTS_05 :
Play Length: 00:00:01
Video: PAL 16:9 (720x576) VBR, Auto Letterboxed
Audio:
Russian (Dolby AC3, 2 ch)
English (Dolby AC3, 2 ch)
Subtitles:
Russian
Russian

MediaInfo

Общее
Полное имя : OLD_HENRY\VIDEO_TS\VTS_04_1.VOB
Формат : MPEG-PS
Размер файла : 1 000 Мбайт
Продолжительность : 23 м. 36 с.
Режим общего битрейта : Переменный
Общий поток : 5 922 Кбит/сек
Библиотека кодирования : encoded by TMPGEnc 4.0 XPress Version. 4.7.4.299
Видео
Идентификатор : 224 (0xE0)
Формат : MPEG Video
Версия формата : Version 2
Профиль формата : Main@Main
Настройки формата : CustomMatrix / BVOP
Параметр BVOP формата : Да
Параметр матрицы формата : Выборочная
Параметр GOP формата : M=3, N=13
Продолжительность : 23 м. 36 с.
Вид битрейта : Переменный
Битрейт : 4 908 Кбит/сек
Максимальный битрейт : 8 000 Кбит/сек
Ширина : 720 пикселей
Высота : 576 пикселей
Соотношение сторон : 16:9
Частота кадров : 25,000 кадров/сек
Стандарт вещания : PAL
Цветовое пространство : YUV
Субдискретизация насыщенности : 4:2:0
Битовая глубина : 8 бит
Тип развёртки : Прогрессивная
Метод сжатия : С потерями
Бит/(Пиксели*Кадры) : 0.473
Временной код первого кадра : 00:00:00:00
Оригинал временного кода : Group of pictures header
GOP, открыто/закрыто : Закрыто
Размер потока : 829 Мбайт (83%)
Библиотека кодирования : TMPGEnc XPress 4.7.4.299
Основные цвета : BT.601 PAL
Характеристики трансфера : BT.470 System B/G
Коэффициенты матрицы : BT.470 System B/G
Аудио #1
Идентификатор : 189 (0xBD)-128 (0x80)
Формат : AC-3
Формат/Информация : Audio Coding 3
Коммерческое название : Dolby Digital
Режим смешивания : DVD-Video
Продолжительность : 23 м. 36 с.
Вид битрейта : Постоянный
Битрейт : 448 Кбит/сек
Каналы : 6 каналов
Channel layout : L R C LFE Ls Rs
Частота : 48,0 КГц
Частота кадров : 31,250 кадров/сек (1536 SPF)
Метод сжатия : С потерями
Размер потока : 75,6 Мбайт (8%)
Service kind : Complete Main
Аудио #2
Идентификатор : 189 (0xBD)-129 (0x81)
Формат : AC-3
Формат/Информация : Audio Coding 3
Коммерческое название : Dolby Digital
Режим смешивания : DVD-Video
Продолжительность : 23 м. 36 с.
Вид битрейта : Постоянный
Битрейт : 448 Кбит/сек
Каналы : 6 каналов
Channel layout : L R C LFE Ls Rs
Частота : 48,0 КГц
Частота кадров : 31,250 кадров/сек (1536 SPF)
Метод сжатия : С потерями
Размер потока : 75,6 Мбайт (8%)
Service kind : Complete Main

Скриншоты меню

Скриншоты

Скриншоты доп. материалов

-Большое спасибо AKIM2B за предоставленный DVD-
[Profile]  [PM] 
Display posts:    
Reply to topic

Current time is: 20-Jul 03:12

All times are UTC + 2



You cannot post new topics in this forum
You cannot reply to topics in this forum
You cannot edit your posts in this forum
You cannot delete your posts in this forum
You cannot vote in polls in this forum
You cannot attach files in this forum
You cannot download files in this forum