Война полиций / La guerre des polices (Робин Дэвис / Robin Davis) [1979, Франция, криминал, драма, триллер, BDRemux 1080p] MVO + DVO + VO + Original Fra

Reply to topic
 
Author
Message

Faust ®

Gender: Unknown

Longevity: 12 years

Posts: 23187

Reputation: 0 [+] [-]

Faust · Post 17-Jun-2023 10:45

[Quote] 

Война полиций
La guerre des polices
-- Страна: Франция
Студия: Les Productions Jacques Roitfeld, Stéphan Films
Жанр: Криминал, драма, триллер
Год выпуска: 1979
Продолжительность: 01:43:09
Перевод 1: Профессиональный (многоголосый закадровый) 1канал
Перевод 2: Профессиональный (двухголосый закадровый) ОРТ? (А. Золотницкий+ж)
Перевод 3: Одноголосый закадровый
Субтитры: нет
Оригинальная аудиодорожка: французский-Режиссер: Робин Дэвис / Robin Davis-В ролях: Клод Брассер / Claude Brasseur, Марлен Жобер / Marlène Jobert, Клод Риш / Claude Rich, Жорж Стэк / Georges Staquet, Жан-Франсуа Стевенен / Jean-François Stévenin, Этьенн Чико / Etienne Chicot-Описание: Высшее полицейское руководство, подгоняемое министром, стремится поскорее
завершить громкое дело. Министру это нужно для собственных политических игр. Чиновники
торопят начальника спецотдела полиции Фуша и начальника вспомогательной полиции Балистра с
поимкой опасного преступника Сарла, чтобы любой ценой попасть на первые полосы газет...-Доп. информация: за перевод 1 канала спасибо Urasiko&yanina.tet. 2-х голосый с DVD5 Il_gatto. Авторский перевод доступен благодаря edich2& alenavova-Сэмпл-Тип релиза: BDRemux 1080p
Контейнер: MKV
Видео: MPEG-4 AVC Video 28186 kbps 1080p / 24 fps / 16:9 / High Profile 4.1
Аудио 1: AC3 / 2.0 / 48 kHz / 192 kbps
Аудио 2: AC3 / 2.0 / 48 kHz / 192 kbps
Аудио 3: AC3 / 2.0 / 48 kHz / 192 kbps
Аудио 4: DTS-HD Master Audio / 2.0 / 48 kHz / 1798 kbps / 24-bit (DTS Core: 2.0 / 48 kHz / 1509 kbps / 24-bit)

MediaInfo

GeneralUnique ID                   : 240710731989349798701346886928108595853 (0xB517335EEFBE0A57B048207197B7AA8D)Complete name               : Война полиций [La guerre des polices] 1979.BDREMUX.mkvFormat                      : MatroskaFormat version              : Version 4File size                   : 22.0 GiBDuration                    : 1 h 43 minOverall bit rate mode       : VariableOverall bit rate            : 30.6 Mb/sEncoded date                : UTC 2023-06-16 17:00:05Writing application         : mkvmerge v72.0.0 ('Minuano (Six-eight)') 64-bitWriting library             : libebml v1.4.4 + libmatroska v1.7.1
VideoID : 1Format : AVCFormat/Info : Advanced Video CodecFormat profile : High@L4.1Format settings : CABAC / 4 Ref FramesFormat settings, CABAC : YesFormat settings, Reference : 4 framesCodec ID : V_MPEG4/ISO/AVCDuration : 1 h 43 minBit rate mode : VariableBit rate : 28.2 Mb/sMaximum bit rate : 32.0 Mb/sWidth : 1 920 pixelsHeight : 1 080 pixelsDisplay aspect ratio : 16:9Frame rate mode : ConstantFrame rate : 24.000 FPSColor space : YUVChroma subsampling : 4:2:0Bit depth : 8 bitsScan type : ProgressiveBits/(Pixel*Frame) : 0.566Stream size : 20.3 GiB (92%)Default : YesForced : NoColor range : LimitedColor primaries : BT.709Transfer characteristics : BT.709Matrix coefficients : BT.709
Audio #1ID : 2Format : AC-3Format/Info : Audio Coding 3Commercial name : Dolby DigitalCodec ID : A_AC3Duration : 1 h 43 minBit rate mode : ConstantBit rate : 192 kb/sChannel(s) : 2 channelsChannel layout : L RSampling rate : 48.0 kHzFrame rate : 31.250 FPS (1536 SPF)Compression mode : LossyStream size : 142 MiB (1%)Title : MVOLanguage : RussianService kind : Complete MainDefault : YesForced : No
Audio #2ID : 3Format : AC-3Format/Info : Audio Coding 3Commercial name : Dolby DigitalCodec ID : A_AC3Duration : 1 h 43 minBit rate mode : ConstantBit rate : 192 kb/sChannel(s) : 2 channelsChannel layout : L RSampling rate : 48.0 kHzFrame rate : 31.250 FPS (1536 SPF)Compression mode : LossyStream size : 142 MiB (1%)Title : DVOLanguage : RussianService kind : Complete MainDefault : NoForced : No
Audio #3ID : 4Format : AC-3Format/Info : Audio Coding 3Commercial name : Dolby DigitalCodec ID : A_AC3Duration : 1 h 43 minBit rate mode : ConstantBit rate : 192 kb/sChannel(s) : 2 channelsChannel layout : L RSampling rate : 48.0 kHzFrame rate : 31.250 FPS (1536 SPF)Compression mode : LossyStream size : 142 MiB (1%)Title : AVOLanguage : RussianService kind : Complete MainDefault : NoForced : No
Audio #4ID : 5Format : DTS XLLFormat/Info : Digital Theater SystemsCommercial name : DTS-HD Master AudioCodec ID : A_DTSDuration : 1 h 43 minBit rate mode : VariableBit rate : 1 798 kb/sChannel(s) : 2 channelsChannel layout : L RSampling rate : 48.0 kHzFrame rate : 93.750 FPS (512 SPF)Bit depth : 24 bitsCompression mode : LosslessStream size : 1.30 GiB (6%)Title : VOFLanguage : FrenchDefault : NoForced : No
Menu00:00:00.000 : :Chapitre 0100:10:33.250 : :Chapitre 0200:21:24.166 : :Chapitre 0300:30:01.750 : :Chapitre 0400:42:16.083 : :Chapitre 0500:52:04.875 : :Chapitre 0601:02:45.708 : :Chapitre 0701:13:09.875 : :Chapitre 0801:25:37.250 : :Chapitre 0901:33:58.333 : :Chapitre 1001:41:57.791 : :Chapitre 11

Скриншоты

[Profile]  [PM] 
Display posts:    
Reply to topic

Current time is: 20-Jul 03:06

All times are UTC + 2



You cannot post new topics in this forum
You cannot reply to topics in this forum
You cannot edit your posts in this forum
You cannot delete your posts in this forum
You cannot vote in polls in this forum
You cannot attach files in this forum
You cannot download files in this forum