Джон Уик 4 / John Wick: Chapter 4 (Чад Стахелски / Chad Stahelski) [2023, США, Германия, боевик, триллер, криминал, WEB-DL 1080p] Dub (Пифагор) + DVO (Кубик в Кубе) + Original (Eng) + Sub (Rus, Eng, Kaz)

Reply to topic
 
Author
Message

Faust ®

Gender: Unknown

Longevity: 12 years

Posts: 23187

Reputation: 0 [+] [-]

Faust · Post 17-Jun-2023 10:45

[Quote] 

Джон Уик 4 / John Wick: Chapter 4- Страна: США, Германия
Жанр: боевик, триллер, криминал
Год выпуска: 2023
Продолжительность: 02:42:23
Перевод 1: Профессиональный (дублированный) | Пифагор
Перевод 2: Профессиональный (двухголосый закадровый) | Кубик в Кубе 18+
Субтитры: Русские (Forced, Full, SDH), английские (Forced, Full), казахские
Оригинальная аудиодорожка: английский
Режиссер: Чад Стахелски / Chad Stahelski
В ролях: Киану Ривз, Донни Йен, Билл Скарсгард, Шамир Андерсон, Иэн Макшейн, Хироюки Санада, Рина Саваяма, Скотт Эдкинс, Марко Сарор, Лоренс Фишбёрн, Клэнси Браун, Лэнс Реддик, Наталия Тена, Свен Марквардт
Описание: Оставляя за собой горы трупов, Джон Уик продолжает скрываться от всевозможных наёмных убийц, и теперь охоту на него возглавляет молодой и честолюбивый член Правления по имени Маркиз. Два управляющих отелями «Континенталь» в Нью-Йорке и Осаке, решившие по старой дружбе помочь своенравному киллеру, уже жестоко за это поплатились, но внезапно Джон узнаёт способ выбраться из этой, казалось бы, безвыходной ситуации.

Качество: WEB-DL 1080p | КИНОПОИСК
Контейнер: MKV
Видео: AVC, 1920x804 (2.40:1), 25 fps, ~6000 kbps
Аудио №1: E-AC3, 48 kHz, 6 ch, 448 kbps
Аудио №2: E-AC3, 48 kHz, 6 ch, 448 kbps
Аудио №3: E-AC3, 48 kHz, 6 ch, 448 kbps
Формат субтитров: softsub (SRT)
БЕЗ ХАРДСАБА

MediaInfo

GeneralComplete name                  : John.Wick.Chapter.4.2023.1080p.WEB-DL.DDP5.1.H.264-EniaHD.mkvFormat                         : MatroskaFormat version                 : Version 4File size                      : 8.28 GiBDuration                       : 2 h 42 minOverall bit rate               : 7 298 kb/sFrame rate                     : 25.000 FPSMovie name                     : John Wick: Chapter 4 (2023) - EniaHDWriting application            : mkvmerge v57.0.0 ('Till The End') 64-bitWriting library                : libebml v1.4.2 + libmatroska v1.6.4
VideoID : 1Format : AVCFormat/Info : Advanced Video CodecFormat profile : Progressive High@L4Format settings : CABAC / 5 Ref FramesFormat settings, CABAC : YesFormat settings, Reference fra : 5 framesCodec ID : V_MPEG4/ISO/AVCDuration : 2 h 42 minBit rate : 6 000 kb/sWidth : 1 920 pixelsHeight : 804 pixelsDisplay aspect ratio : 2.40:1Frame rate mode : ConstantFrame rate : 25.000 FPSColor space : YUVChroma subsampling : 4:2:0Bit depth : 8 bitsScan type : ProgressiveBits/(Pixel*Frame) : 0.155Stream size : 6.75 GiB (82%)Writing library : x264 core 157Encoding settings : cabac=1 / ref=5 / deblock=1:0:0 / analyse=0x3:0x133 / me=umh / subme=10 / psy=1 / psy_rd=1.00:0.00 / mixed_ref=1 / me_range=24 / chroma_me=1 / trellis=2 / 8x8dct=1 / cqm=0 / deadzone=21,11 / fast_pskip=1 / chroma_qp_offset=-2 / threads=25 / lookahead_threads=4 / sliced_threads=0 / nr=0 / decimate=1 / interlaced=0 / bluray_compat=0 / stitchable=1 / constrained_intra=0 / bframes=8 / b_pyramid=2 / b_adapt=2 / b_bias=0 / direct=3 / weightb=1 / open_gop=0 / weightp=2 / keyint=250 / keyint_min=25 / scenecut=40 / intra_refresh=0 / rc_lookahead=60 / rc=2pass / mbtree=1 / bitrate=6000 / ratetol=1.0 / qcomp=0.60 / qpmin=0 / qpmax=69 / qpstep=4 / cplxblur=20.0 / qblur=0.5 / vbv_maxrate=6600 / vbv_bufsize=12000 / nal_hrd=none / filler=0 / ip_ratio=1.40 / aq=1:1.00Default : YesForced : NoColor range : LimitedColor primaries : BT.709Transfer characteristics : BT.709Matrix coefficients : BT.709
Audio #1ID : 2Format : E-AC-3Format/Info : Enhanced AC-3Commercial name : Dolby Digital PlusCodec ID : A_EAC3Duration : 2 h 42 minBit rate mode : ConstantBit rate : 448 kb/sChannel(s) : 6 channelsChannel layout : L R C LFE Ls RsSampling rate : 48.0 kHzFrame rate : 31.250 FPS (1536 SPF)Compression mode : LossyStream size : 520 MiB (6%)Title : ПифагорLanguage : RussianService kind : Complete MainDefault : YesForced : No
Audio #2ID : 3Format : E-AC-3Format/Info : Enhanced AC-3Commercial name : Dolby Digital PlusCodec ID : A_EAC3Duration : 2 h 42 minBit rate mode : ConstantBit rate : 448 kb/sChannel(s) : 6 channelsChannel layout : L R C LFE Ls RsSampling rate : 48.0 kHzFrame rate : 31.250 FPS (1536 SPF)Compression mode : LossyStream size : 520 MiB (6%)Title : Кубик в Кубе 18+Language : RussianService kind : Complete MainDefault : NoForced : No
Audio #3ID : 4Format : E-AC-3Format/Info : Enhanced AC-3Commercial name : Dolby Digital PlusCodec ID : A_EAC3Duration : 2 h 42 minBit rate mode : ConstantBit rate : 448 kb/sChannel(s) : 6 channelsChannel layout : L R C LFE Ls RsSampling rate : 48.0 kHzFrame rate : 31.250 FPS (1536 SPF)Compression mode : LossyStream size : 520 MiB (6%)Title : EnglishLanguage : EnglishService kind : Complete MainDefault : NoForced : No
Text #1ID : 5Format : UTF-8Codec ID : S_TEXT/UTF8Codec ID/Info : UTF-8 Plain TextDuration : 2 h 18 minBit rate : 1 b/sFrame rate : 0.004 FPSCount of elements : 37Stream size : 1.38 KiB (0%)Title : Russian (Forced)Language : RussianDefault : YesForced : No
Text #2ID : 6Format : UTF-8Codec ID : S_TEXT/UTF8Codec ID/Info : UTF-8 Plain TextDuration : 2 h 31 minBit rate : 37 b/sFrame rate : 0.118 FPSCount of elements : 1069Stream size : 41.2 KiB (0%)Title : RussianLanguage : RussianDefault : NoForced : No
Text #3ID : 7Format : UTF-8Codec ID : S_TEXT/UTF8Codec ID/Info : UTF-8 Plain TextDuration : 2 h 31 minBit rate : 54 b/sFrame rate : 0.169 FPSCount of elements : 1536Stream size : 60.1 KiB (0%)Title : Russian (SDH)Language : RussianDefault : NoForced : No
Text #4ID : 8Format : UTF-8Codec ID : S_TEXT/UTF8Codec ID/Info : UTF-8 Plain TextDuration : 2 h 18 minBit rate : 1 b/sFrame rate : 0.008 FPSCount of elements : 67Stream size : 1.47 KiB (0%)Title : English (Forced)Language : EnglishDefault : NoForced : No
Text #5ID : 9Format : UTF-8Codec ID : S_TEXT/UTF8Codec ID/Info : UTF-8 Plain TextDuration : 2 h 31 minBit rate : 23 b/sFrame rate : 0.118 FPSCount of elements : 1067Stream size : 25.7 KiB (0%)Title : EnglishLanguage : EnglishDefault : NoForced : No
Text #6ID : 10Format : UTF-8Codec ID : S_TEXT/UTF8Codec ID/Info : UTF-8 Plain TextDuration : 2 h 30 minBit rate : 41 b/sFrame rate : 0.117 FPSCount of elements : 1060Stream size : 45.4 KiB (0%)Title : KazakhLanguage : KazakhDefault : NoForced : No

Скриншоты

[Profile]  [PM] 
Display posts:    
Reply to topic

Current time is: 20-Jul 03:40

All times are UTC + 2



You cannot post new topics in this forum
You cannot reply to topics in this forum
You cannot edit your posts in this forum
You cannot delete your posts in this forum
You cannot vote in polls in this forum
You cannot attach files in this forum
You cannot download files in this forum