Код «Омега» / The Omega Code (Роберт Маркарелли / Robert Marcarelli) [1999, США, боевик, триллер, драма, DVDRip-AVC] AVO (Сергей Визгунов) + AVO (Василий Горчаков) + Original Eng

Reply to topic
 
Author
Message

Satyr ®

Gender: Unknown

Longevity: 15 years

Posts: 22031

Reputation: 56 [+] [-]

Satyr · Post 17-Jun-2023 14:50

[Quote] 

Код «Омега» / The Omega Code
[FullScreen]
Страна: США
Жанр: боевик, триллер, драма
Год выпуска: 1999
Продолжительность: 01:39:20
Перевод: Авторский (одноголосый закадровый) Сергей Визгунов
Перевод 2: Авторский (одноголосый закадровый) Василий Горчаков
Субтитры: нет
Оригинальная аудиодорожка: английский
Режиссер: Роберт Маркарелли / Robert Marcarelli
В ролях: Каспер Ван Дин (Gillen Lane,), Майкл Йорк (Stone Alexander), Кэтрин Оксенберг (Cassandra Barashe,), Майкл Айронсайд (Dominic), Ян Тришка (Prophet #1), Грегори Вагровски (Prophet #2), Девон Одесса (Jennifer Lane), Уильям Хуткинс (Sir Percival Lloyd), Роберт Ито (Shimoro Lin Che), Джанет Кэрролл (Dorothy Thompson), Джордж Коу (Sen. Jack Thompson), Равиль Исянов (Rykoff)
Описание: Давно известно, что в Библии, в Книге Откровений, скрыты древние зашифрованные послания, предсказывающие наступление глобальных судьбоносных событий. Примеры тому - появление Гитлера, убийство Кеннеди, война в Заливе. А что, если кто - то, используя последние достижения науки, сможет расшифровать коды этих пророчеств и тем самым получит контроль над нашим будущим?
Доп. информация: Дорожку с Визгуновым синхронизировал ale_x2008
За дорожку благодарим - dayanat76

Дорожку с Горчаковым синхронизировал ale_x2008
За оцифрованную с VHS дорожку благодарим - RockNIK

Оцифровка - RoxMarty
Релиз
Сэмпл: https://www.sendspace.com/file/1v7ws9
Качество видео: DVDRip-AVC (спасибо за исходник от sany643 )
Формат видео: MKV
Видео: MPEG4 Video (H264) 640x480 23.976fps Bit rate 1 273 kb/s
Аудио: AC3 Dolby Digital, 48000Hz, 2/0 (L,R) ch (stereo), 192 kbps avg
Аудио 2: AC3 Dolby Digital, 48000Hz, 2/0 (L,R) ch (mono), 192 kbps avg
Аудио 3: Dolby AC3 48000Hz 6ch 448kbps English

MediaInfo

Код «Омега» (The Omega Code) [by ale_x2008].mkvFormat                      : MatroskaFormat version              : Version 4File size                   : 1.46 GiBDuration                    : 1 h 39 minOverall bit rate            : 2 107 kb/sFrame rate                  : 23.976 FPSEncoded date                : 2023-06-16 03:26:29 UTCWriting application         : mkvmerge v71.0.0 ('Altitude') 64-bitWriting library             : libebml v1.4.4 + libmatroska v1.7.1
VideoID : 1Format : AVCFormat/Info : Advanced Video CodecFormat profile : High@L4.1Format settings : CABAC / 16 Ref FramesFormat settings, CABAC : YesFormat settings, Reference : 16 framesCodec ID : V_MPEG4/ISO/AVCDuration : 1 h 39 minBit rate : 1 273 kb/sWidth : 640 pixelsHeight : 480 pixelsDisplay aspect ratio : 4:3Frame rate mode : ConstantFrame rate : 23.976 (24000/1001) FPSOriginal frame rate : 23.976 (23976/1000) FPSColor space : YUVChroma subsampling : 4:2:0Bit depth : 8 bitsScan type : ProgressiveBits/(Pixel*Frame) : 0.173Stream size : 904 MiB (60%)Writing library : x264 core 148 r2638 7599210Encoding settings : cabac=1 / ref=16 / deblock=1:-3:-3 / analyse=0x3:0x133 / me=umh / subme=9 / psy=1 / psy_rd=1.00:0.00 / mixed_ref=1 / me_range=32 / chroma_me=1 / trellis=2 / 8x8dct=1 / cqm=0 / deadzone=21,11 / fast_pskip=1 / chroma_qp_offset=-2 / threads=15 / lookahead_threads=3 / sliced_threads=0 / nr=0 / decimate=1 / interlaced=0 / bluray_compat=0 / constrained_intra=0 / bframes=10 / b_pyramid=0 / b_adapt=2 / b_bias=0 / direct=3 / weightb=1 / open_gop=0 / weightp=2 / keyint=250 / keyint_min=23 / scenecut=40 / intra_refresh=0 / rc=crf / mbtree=0 / crf=19.0 / qcomp=0.60 / qpmin=0 / qpmax=69 / qpstep=4 / ip_ratio=1.40 / pb_ratio=1.30 / aq=1:1.00Default : YesForced : No
Audio #1ID : 2Format : AC-3Format/Info : Audio Coding 3Commercial name : Dolby DigitalCodec ID : A_AC3Duration : 1 h 39 minBit rate mode : ConstantBit rate : 192 kb/sChannel(s) : 2 channelsChannel layout : L RSampling rate : 48.0 kHzFrame rate : 31.250 FPS (1536 SPF)Compression mode : LossyStream size : 136 MiB (9%)Title : ВизгуновLanguage : RussianService kind : Complete MainDefault : YesForced : No
Audio #2ID : 3Format : AC-3Format/Info : Audio Coding 3Commercial name : Dolby DigitalCodec ID : A_AC3Duration : 1 h 39 minBit rate mode : ConstantBit rate : 192 kb/sChannel(s) : 2 channelsChannel layout : L RSampling rate : 48.0 kHzFrame rate : 31.250 FPS (1536 SPF)Compression mode : LossyStream size : 136 MiB (9%)Title : ГорчаковLanguage : RussianService kind : Complete MainDefault : NoForced : No
Audio #3ID : 4Format : AC-3Format/Info : Audio Coding 3Commercial name : Dolby DigitalCodec ID : A_AC3Duration : 1 h 39 minBit rate mode : ConstantBit rate : 448 kb/sChannel(s) : 6 channelsChannel layout : L R C LFE Ls RsSampling rate : 48.0 kHzFrame rate : 31.250 FPS (1536 SPF)Compression mode : LossyStream size : 318 MiB (21%)Language : EnglishService kind : Complete MainDefault : NoForced : No

Скриншоты


[Profile]  [PM] 
Display posts:    
Reply to topic

Current time is: 20-Jul 03:39

All times are UTC + 2



You cannot post new topics in this forum
You cannot reply to topics in this forum
You cannot edit your posts in this forum
You cannot delete your posts in this forum
You cannot vote in polls in this forum
You cannot attach files in this forum
You cannot download files in this forum