Убийство под номером / Двойное убийство / Murder by Numbers (Пол Лидер / Paul Leder) [1990, США, триллер, криминал, VHSRip-AVC] AVO (Александр Кашкин) + Original Eng

Reply to topic
 
Author
Message

Satyr ®

Gender: Unknown

Longevity: 15 years

Posts: 22031

Reputation: 56 [+] [-]

Satyr · Post 17-Jun-2023 14:50

[Quote] 

Убийство под номером / Двойное убийство / Murder by Numbers
Страна: США
Жанр: триллер, криминал
Год выпуска: 1990
Продолжительность: 01:31:57
Перевод: Авторский (одноголосый закадровый) Александр Кашкин
Оригинальная аудиодорожка: английский
Субтитры: нет
Режиссер: Пол Лидер / Paul Leder
В ролях: Джеймс Анжелико
Марк Ата
Сэм Беренс
Шари Белафонте
Рони Блейкли
Брайан Брэдли
Wlad Cembrowicz
Ронни Коулмэн
Элисон Джейн Фрейзер
Описание: Лос-Анжелес. Мир роскоши, власти и богатства. Богачи путешествуют в личных самолетах, водят дорогие машины. У них все прекрасно. Почти. Двое из «Лучших людей» города были убиты.
Сэм Беренс — детектив. Он должен выяснить мотив преступления и предотвратитьвозможное продолжение. Каждый — под подозрением. Один из них — убийца.
Доп. информация: Дорожка с Кашкиным синхронизировал ale_x2008
За оцифрованную с VHS дорожку благодарим - Fikaloid

Релиз
Сэмпл: https://www.sendspace.com/file/1jsyvw
Качество видео: VHSRip-AVC
Формат видео: MKV
Видео: MPEG4 Video (H264) 640x436 23.976fps Bit rate 1 700 kb/s
Аудио: 48 kHz, AC3 Dolby Digital, 2/0 (L,R) ch (mono), ~192 kbps
Аудио: Dolby AC3 48000Hz 2 ch 192kbps [A: English

MediaInfo

Двойное убийство (Murder by Numbers) VHSRip-AVC [by ale_x2008].mkv
Format : Matroska
Format version : Version 4
File size : 1.33 GiB
Duration : 1 h 30 min
Overall bit rate : 2 087 kb/s
Frame rate : 23.976 FPS
Encoded date : 2023-06-15 03:56:41 UTC
Writing application : mkvmerge v71.0.0 ('Altitude') 64-bit
Writing library : libebml v1.4.4 + libmatroska v1.7.1
Video
ID : 1
Format : AVC
Format/Info : Advanced Video Codec
Format profile : High@L3.1
Format settings : CABAC / 5 Ref Frames
Format settings, CABAC : Yes
Format settings, Reference : 5 frames
Codec ID : V_MPEG4/ISO/AVC
Duration : 1 h 30 min
Bit rate : 1 700 kb/s
Width : 640 pixels
Height : 436 pixels
Display aspect ratio : 4:3
Original display aspect rat : 4:3
Frame rate mode : Constant
Frame rate : 23.976 (24000/1001) FPS
Color space : YUV
Chroma subsampling : 4:2:0
Bit depth : 8 bits
Scan type : Progressive
Bits/(Pixel*Frame) : 0.254
Stream size : 1.08 GiB (82%)
Title : Murder by Numbers (1990)_Vhs_Kg
Writing library : x264 core 138 r2358 9e941d1
Encoding settings : cabac=1 / ref=5 / deblock=1:-3:-3 / analyse=0x3:0x113 / me=umh / subme=8 / psy=1 / psy_rd=1.00:0.15 / mixed_ref=1 / me_range=16 / chroma_me=1 / trellis=1 / 8x8dct=1 / cqm=0 / deadzone=21,11 / fast_pskip=1 / chroma_qp_offset=-3 / threads=12 / lookahead_threads=2 / sliced_threads=0 / nr=0 / decimate=0 / interlaced=0 / bluray_compat=0 / constrained_intra=0 / bframes=3 / b_pyramid=2 / b_adapt=2 / b_bias=0 / direct=3 / weightb=1 / open_gop=0 / weightp=2 / keyint=240 / keyint_min=23 / scenecut=40 / intra_refresh=0 / rc_lookahead=50 / rc=2pass / mbtree=1 / bitrate=1700 / ratetol=3.0 / qcomp=0.60 / qpmin=0 / qpmax=69 / qpstep=4 / cplxblur=20.0 / qblur=0.5 / vbv_maxrate=14000 / vbv_bufsize=14000 / nal_hrd=none / ip_ratio=1.40 / aq=1:1.00
Language : English
Default : Yes
Forced : No
Audio #1
ID : 2
Format : AC-3
Format/Info : Audio Coding 3
Commercial name : Dolby Digital
Codec ID : A_AC3
Duration : 1 h 30 min
Bit rate mode : Constant
Bit rate : 192 kb/s
Channel(s) : 2 channels
Channel layout : L R
Sampling rate : 48.0 kHz
Frame rate : 31.250 FPS (1536 SPF)
Compression mode : Lossy
Stream size : 125 MiB (9%)
Language : Russian
Service kind : Complete Main
Default : Yes
Forced : No
Audio #2
ID : 3
Format : AC-3
Format/Info : Audio Coding 3
Commercial name : Dolby Digital
Codec ID : A_AC3
Duration : 1 h 30 min
Bit rate mode : Constant
Bit rate : 192 kb/s
Channel(s) : 2 channels
Channel layout : L R
Sampling rate : 48.0 kHz
Frame rate : 31.250 FPS (1536 SPF)
Compression mode : Lossy
Delay relative to video : 12 ms
Stream size : 125 MiB (9%)
Language : English
Service kind : Complete Main
Default : No
Forced : No

Скриншоты


[Profile]  [PM] 
Display posts:    
Reply to topic

Current time is: 20-Jul 03:38

All times are UTC + 2



You cannot post new topics in this forum
You cannot reply to topics in this forum
You cannot edit your posts in this forum
You cannot delete your posts in this forum
You cannot vote in polls in this forum
You cannot attach files in this forum
You cannot download files in this forum