Принуждение / Compulsión (Анхель Гонсалес / Ángel González) [2017, Испания, ужасы, триллер, криминал, BDRip] DVO (Киноужас) + Original Spa

Reply to topic
 
Author
Message

Satyr ®

Gender: Unknown

Longevity: 15 years

Posts: 22045

Reputation: 56 [+] [-]

Satyr · Post 17-Jun-2023 14:50

[Quote] 

Принуждение / Compulsión
Страна: Испания
Жанр: ужасы, триллер, криминал
Год выпуска: 2017
Продолжительность: 01:20:17
Перевод: Профессиональный (двухголосый закадровый) Киноужас
Субтитры: нет
Оригинальная аудиодорожка: испанский
Режиссер: Анхель Гонсалес / Ángel González
В ролях: Сусанна Гомес
Пол Кардона
Марина Эстеве
Пако Мансанедо
Описание: Заподозрив любимого в измене, Эстер решает проследить за ним и его любовницей. Однако, правда оказывается намного страшнее и вместо сцены разоблачения неверного девушку ждёт кровавый кошмар.
Сэмпл: http://sendfile.su/1670088
Качество видео: BDRip (Compulsion.Abgruende.der.menschlichen.Seele.2017.GERMAN.DUAL.COMPLETE.BLURAY-UNiVERSUM)
Формат видео: AVI
Видео: MPEG4, XviD, 720x304 (2.35:1), 24.000 fps, 1 685 Kbps (0.321 bit/pixel)
Аудио: AC-3, 48.0 KHz, 6 ch, 448 Kbps, CBR - русский
Аудио 2: AC-3, 48.0 KHz, 6 ch, 448 Kbps, CBR - испанский

MediaInfo

GeneralComplete name                            : H:\Принуждение.aviFormat                                   : AVIFormat/Info                              : Audio Video InterleaveFile size                                : 1.46 GiBDuration                                 : 1 h 20 minOverall bit rate                         : 2 595 kb/sMovie name                               : Принуждение / Compulsion (2017)Writing application                      : VirtualDubMod 1.5.10.2 (build 2540/release)Writing library                          : VirtualDubMod build 2540/releaseCopyright                                : miha2154
VideoID : 0Format : MPEG-4 VisualFormat profile : Advanced Simple@L5Format settings : BVOP1 / Custom MatrixFormat settings, BVOP : 1Format settings, QPel : NoFormat settings, GMC : No warppointsFormat settings, Matrix : CustomCodec ID : XVIDCodec ID/Hint : XviDDuration : 1 h 20 minBit rate : 1 685 kb/sWidth : 720 pixelsHeight : 304 pixelsDisplay aspect ratio : 2.35:1Frame rate : 24.000 FPSColor space : YUVChroma subsampling : 4:2:0Bit depth : 8 bitsScan type : ProgressiveCompression mode : LossyBits/(Pixel*Frame) : 0.321Stream size : 968 MiB (65%)Writing library : XviD 65
Audio #1ID : 1Format : AC-3Format/Info : Audio Coding 3Commercial name : Dolby DigitalCodec ID : 2000Duration : 1 h 20 minBit rate mode : ConstantBit rate : 448 kb/sChannel(s) : 6 channelsChannel layout : L R C LFE Ls RsSampling rate : 48.0 kHzFrame rate : 31.250 FPS (1536 SPF)Bit depth : 16 bitsCompression mode : LossyStream size : 257 MiB (17%)Alignment : Split accross interleavesInterleave, duration : 42 ms (1.00 video frame)Interleave, preload duration : 500 msTitle : Профессиональный (двухголосый, закадровый) КиноужасService kind : Complete Main
Audio #2ID : 2Format : AC-3Format/Info : Audio Coding 3Commercial name : Dolby DigitalCodec ID : 2000Duration : 1 h 20 minBit rate mode : ConstantBit rate : 448 kb/sChannel(s) : 6 channelsChannel layout : L R C LFE Ls RsSampling rate : 48.0 kHzFrame rate : 31.250 FPS (1536 SPF)Bit depth : 16 bitsCompression mode : LossyStream size : 257 MiB (17%)Alignment : Split accross interleavesInterleave, duration : 42 ms (1.00 video frame)Interleave, preload duration : 500 msTitle : ИспанскийService kind : Complete Main

Скриншот c названием фильма

Скриншоты


[Profile]  [PM] 
Display posts:    
Reply to topic

Current time is: 25-Jul 06:40

All times are UTC + 2



You cannot post new topics in this forum
You cannot reply to topics in this forum
You cannot edit your posts in this forum
You cannot delete your posts in this forum
You cannot vote in polls in this forum
You cannot attach files in this forum
You cannot download files in this forum