Эксперты / Специалисты / Чудо-специалисты / The Experts (Дэйв Томас / Dave Thomas) [1989, Канада, США, комедия, приключения, BDRip] [USA Transfer] AVO (Сергей Кузнецов) + DVO (Paramount Channel) + DVO (Премьер Видео фильм)

Reply to topic
 
Author
Message

Satyr ®

Gender: Unknown

Longevity: 15 years

Posts: 22031

Reputation: 56 [+] [-]

Satyr · Post 17-Jun-2023 14:50

[Quote] 

Эксперты / Специалисты / Чудо-специалисты / The Experts
Страна: Канада, США
Жанр: комедия, приключения
Год выпуска: 1989
Продолжительность: 01:33:33
Перевод: Авторский (одноголосый закадровый) Сергей Кузнецов
Перевод 2: Профессиональный (двухголосый закадровый) Paramount Channel
Перевод 3: Профессиональный (двухголосый закадровый) Премьер Видео фильм
Субтитры: нет
Режиссер: Дэйв Томас / Dave Thomas
В ролях: Джон Траволта, Ари Гросс, Келли Престон, Дебора Формен, Джеймс Кич, Ян Рубес, Брайан Дойл-Мюррей, Чарльз Мартин
Описание: КГБ готовит шпионов в образцовом городке, выстроенном в центре СССР по подобию настоящего американского провинциального города. А из США доставляют двух специалистов, которые должны открыть клуб, подобный нью-йоркскому. Но они не знают, где находятся, пребывая в полной уверенности, что просто попали в глубинку родных Штатов ...

Сэмпл: https://disk.yandex.ru/i/dV33tv2pHNsbHw
Качество видео: BDRip (Исходник BDRemux 1080p)
Формат видео: AVI
Видео: XviD 73, 720x384, (1,85:1), 23,976 fps, 1638 Кбит/с, 8 бит, 0.25 bit/pixel
Аудио: Русский (АС3, 2 ch (Front: L R), 48,0 KHz, 192 Kbps) Сергей Кузнецов
Аудио 2: Русский (АС3, 2 ch (Front: L R), 48,0 KHz, 192 Kbps) Paramount Channel
Аудио 3: Русский (АС3, 2 ch (Front: L R), 48,0 KHz, 192 Kbps) Премьер Видео фильм

MediaInfo

ОбщееПолное имя                               : F:\На трекер\Эксперты  (комедия, приключения 1989 год).aviФормат                                   : AVIФормат/Информация                        : Audio Video InterleaveРазмер файла                             : 1,46 ГбайтПродолжительность                        : 1 ч. 33 м.Общий поток                              : 2233 Кбит/секПрограмма кодирования                    : VirtualDubMod 1.5.10.2 (build 2540/release)Библиотека кодирования                   : VirtualDubMod build 2540/release
ВидеоИдентификатор : 0Формат : MPEG-4 VisualПрофиль формата : Advanced Simple@L5Параметр BVOP формата : 2Параметр QPel формата : НетПараметр GMC формата : Без точки переходаПараметр матрицы формата : ВыборочнаяИдентификатор кодека : XVIDИдентификатор кодека/Подсказка : XviDПродолжительность : 1 ч. 33 м.Битрейт : 1638 Кбит/секШирина : 720 пикселейВысота : 384 пикселяСоотношение сторон : 1,85:1Частота кадров : 23,976 (23976/1000) кадра/секЦветовое пространство : YUVСубдискретизация насыщенности : 4:2:0Битовая глубина : 8 битТип развёртки : ПрогрессивнаяМетод сжатия : С потерямиБит/(Пиксели*Кадры) : 0.247Размер потока : 1,07 Гбайт (73%)Библиотека кодирования : XviD 73
Аудио #1Идентификатор : 1Формат : AC-3Формат/Информация : Audio Coding 3Расширение режима : CM (complete main)Параметр Endianness формата : BigИдентификатор кодека : 2000Продолжительность : 1 ч. 33 м.Вид битрейта : ПостоянныйБитрейт : 192 Кбит/секКаналы : 2 каналаРасположение каналов : Front: L RЧастота : 48,0 КГцЧастота кадров : 31,250 кадров/сек (1536 spf)Метод сжатия : С потерямиРазмер потока : 128 Мбайт (9%)Выравнивание : Разделение по промежуткамПродолжительность промежутка : 42 мс. (1,00 видеокадр)Время предзагрузки промежутка : 500 мс.
Аудио #2Идентификатор : 2Формат : AC-3Формат/Информация : Audio Coding 3Расширение режима : CM (complete main)Параметр Endianness формата : BigИдентификатор кодека : 2000Продолжительность : 1 ч. 33 м.Вид битрейта : ПостоянныйБитрейт : 192 Кбит/секКаналы : 2 каналаРасположение каналов : Front: L RЧастота : 48,0 КГцЧастота кадров : 31,250 кадров/сек (1536 spf)Метод сжатия : С потерямиРазмер потока : 128 Мбайт (9%)Выравнивание : Разделение по промежуткамПродолжительность промежутка : 42 мс. (1,00 видеокадр)Время предзагрузки промежутка : 500 мс.
Аудио #3Идентификатор : 3Формат : AC-3Формат/Информация : Audio Coding 3Расширение режима : CM (complete main)Параметр Endianness формата : BigИдентификатор кодека : 2000Продолжительность : 1 ч. 33 м.Вид битрейта : ПостоянныйБитрейт : 192 Кбит/секКаналы : 2 каналаРасположение каналов : Front: L RЧастота : 48,0 КГцЧастота кадров : 31,250 кадров/сек (1536 spf)Метод сжатия : С потерямиРазмер потока : 128 Мбайт (9%)Выравнивание : Разделение по промежуткамПродолжительность промежутка : 42 мс. (1,00 видеокадр)Время предзагрузки промежутка : 500 мс.

Скриншот c названием фильма

Скриншоты

Сравнениеhttps://torrentsland.com.ua/forum/viewtopic.php?t=2445580 Справа скрины моего рипа



https://torrentsland.com.ua/forum/viewtopic.php?t=5418890 Справа скрины моего рипа


[Profile]  [PM] 
Display posts:    
Reply to topic

Current time is: 20-Jul 03:37

All times are UTC + 2



You cannot post new topics in this forum
You cannot reply to topics in this forum
You cannot edit your posts in this forum
You cannot delete your posts in this forum
You cannot vote in polls in this forum
You cannot attach files in this forum
You cannot download files in this forum