Зловещие мертвецы / The Evil Dead (Сэм Рэйми / Sam Raimi) [1981, США, ужасы, триллер, драма, BDRip-AVC] [OAR] MVO (iTunes) + 4х AVO + Sub Rus, Eng + Original Eng

Reply to topic
 
Author
Message

Satyr ®

Gender: Unknown

Longevity: 15 years

Posts: 22031

Reputation: 56 [+] [-]

Satyr · Post 17-Jun-2023 23:00

[Quote] 

Зловещие мертвецы / The Evil Dead Original Aspect Ratio4:3 Страна: США
Жанр: ужасы
Год выпуска: 1981
Продолжительность: 01:25:26-Перевод: профессиональный (многоголосый закадровый) |iTunes|
Перевод: авторский (одноголосый, закадровый) |Дмитрий Пучков (Гоблин)|
Субтитры: русские, английские
Оригинальная аудиодорожка: английский---Отдельно
Перевод: авторский (одноголосый, закадровый) |Андрей Гаврилов|
Перевод: авторский (одноголосый, закадровый) |Леонид Володарский|
Перевод: авторский (одноголосый, закадровый) |Андрей Дольский|--Режиссер: Сэм Рэйми / Sam Raimi-В ролях-Брюс Кэмпбелл, Тед Рэйми, Сэм Рэйми, Эллен Сэндвайз, Ричард ДеМэнинкор, Бетси Бейкер, Тереза Тилли, Шерил Гаттридж, Айван Рэйми-Описание-Молодые люди снимают на выходные загородный дом. Находится он в непролазной глуши, выглядит мрачно, а кругом — ни души. Аренда стоит копейки, но не потому, что он того и гляди развалится… Раньше здесь жил археолог, после которого в подвале остались различные мистические артефакты. Например, книга мертвых, предметы неизвестных магических культов и магнитофон с записью заклинания на непонятном языке. Ребята запись прослушали… С наступлением темноты им предстоит встретиться с духами, которых они разбудили...-Качество видео: BDRip
Исходное видео: BDRemux 1080p
Контейнер: MKV-Видео: AVC, ~3700 kbps, 824x618 (4:3), 23.976 fps
Аудио: AC-3, 384 kbps, Dolby Digital, 3/2 (L,C,R,l,r) + LFE ch, 48 KHz |iTunes|
Аудио: AC-3, 384 kbps, Dolby Digital, 3/2 (L,C,R,l,r) + LFE ch, 48 KHz |Гоблин|
Аудио: AC-3, 384 kbps, Dolby Digital, 3/2 (L,C,R,l,r) + LFE ch, 48 KHz |Original|
Формат субтитров: softsub (SRT)
Главы: есть (не подписаны)-2.94 GB-Отдельно
Аудио: AC-3, 384 kbps, Dolby Digital, 3/2 (L,C,R,l,r) + LFE ch, 48 KHz |Гаврилов|
Аудио: AC-3, 192 kbps, Dolby Digital, 2 ch, 48 KHz |Володарский|
Аудио: AC-3, 192 kbps, Dolby Digital, 2 ch, 48 KHz |Дольский|-IMDb
Кинопоиск

MediaInfo

х264

VIDEO ENCODING
------------------------------
Encoding video to: D:\Temp\0025.264
x264 Q19.2 824x618 23.976fps (122904 frames)
avs4x26x.exe: -L x264_64.exe --crf 19.2 --preset placebo --level 4.1 --ref 14 --aq-mode 3 --aq-strength 0.8 --deblock -3:-2 --merange 64 --me umh --no-mbtree --keyint 240 --colorprim bt709 --transfer bt709 --colormatrix bt709 --vbv-bufsize 62500 --vbv-maxrate 50000 --partitions p8x8,b8x8,i4x4,i8x8 --sar 1:1 --output "D:\Temp\0025.264" "D:\Temp\0025.avs"
raw [info]: 824x618p 1:1 @ 24000/1001 fps (cfr)
x264 [info]: using SAR=1/1
x264 [info]: using cpu capabilities: MMX2 SSE2Fast SSSE3 SSE4.2 AVX FMA3 BMI2 AVX2
x264 [info]: profile High, level 4.1, 4:2:0, 8-bit
x264 [info]: frame I:806 Avg QP:17.37 size: 65827
x264 [info]: frame P:22694 Avg QP:19.39 size: 35882
x264 [info]: frame B:99404 Avg QP:21.95 size: 15553
x264 [info]: consecutive B-frames: 1.4% 1.3% 3.9% 13.6% 16.7% 34.6% 9.6% 6.2% 3.3% 2.5% 1.7% 2.1% 1.1% 0.9% 0.4% 0.4% 0.4%
x264 [info]: mb I I16..4: 6.6% 80.6% 12.9%
x264 [info]: mb P I16..4: 0.2% 17.4% 0.8% P16..4: 28.2% 38.0% 13.2% 0.0% 0.0% skip: 2.2%
x264 [info]: mb B I16..4: 0.0% 3.2% 0.1% B16..8: 39.3% 20.1% 4.9% direct: 6.3% skip:26.2% L0:46.5% L1:45.0% BI: 8.5%
x264 [info]: 8x8 transform intra:94.3% inter:61.2%
x264 [info]: direct mvs spatial:100.0% temporal:0.0%
x264 [info]: coded y,uvDC,uvAC intra: 97.5% 88.6% 70.0% inter: 35.3% 20.8% 2.1%
x264 [info]: i16 v,h,dc,p: 29% 15% 19% 37%
x264 [info]: i8 v,h,dc,ddl,ddr,vr,hd,vl,hu: 7% 8% 11% 11% 14% 13% 13% 11% 12%
x264 [info]: i4 v,h,dc,ddl,ddr,vr,hd,vl,hu: 7% 6% 3% 11% 18% 16% 15% 12% 13%
x264 [info]: i8c dc,h,v,p: 47% 20% 15% 18%
x264 [info]: Weighted P-Frames: Y:13.3% UV:8.0%
x264 [info]: ref P L0: 39.0% 8.2% 16.7% 7.6% 6.4% 4.8% 4.4% 2.3% 2.2% 1.8% 1.8% 1.5% 1.5% 1.4% 0.2% 0.0%
x264 [info]: ref B L0: 65.3% 12.4% 7.1% 3.7% 2.8% 2.3% 1.9% 1.1% 1.0% 0.9% 0.8% 0.5% 0.2%
x264 [info]: ref B L1: 92.7% 7.3%
x264 [info]: kb/s:3766.44
Format : Matroska
Format version : Version 2
File size : 2.94 GiB
Duration : 1 h 25 min
Overall bit rate : 4 921 kb/s
Frame rate : 23.976 FPS
Movie name : Зловещие мертвецы / The Evil Dead / OAR
Encoded date : 2023-06-17 09:54:11 UTC
Writing application : mkvmerge v6.9.1 ('Blue Panther') 32bit built on Apr 18 2014 18:15:44
Writing library : libebml v1.3.0 + libmatroska v1.4.1
Cover : Yes
Attachments : cover.jpg
Video
ID : 1
Format : AVC
Format/Info : Advanced Video Codec
Format profile : High@L4.1
Format settings : CABAC / 14 Ref Frames
Format settings, CABAC : Yes
Format settings, Reference : 14 frames
Codec ID : V_MPEG4/ISO/AVC
Duration : 1 h 25 min
Bit rate : 3 671 kb/s
Width : 824 pixels
Height : 618 pixels
Display aspect ratio : 4:3
Frame rate mode : Constant
Frame rate : 23.976 (24000/1001) FPS
Color space : YUV
Chroma subsampling : 4:2:0
Bit depth : 8 bits
Scan type : Progressive
Bits/(Pixel*Frame) : 0.301
Stream size : 2.19 GiB (75%)
Title : The Evil Dead_1981_CW_RGTru
Writing library : x264 core 164 r3107 a8b68eb
Encoding settings : cabac=1 / ref=14 / deblock=1:-3:-2 / analyse=0x3:0x113 / me=umh / subme=11 / psy=1 / psy_rd=1.00:0.00 / mixed_ref=1 / me_range=64 / chroma_me=1 / trellis=2 / 8x8dct=1 / cqm=0 / deadzone=21,11 / fast_pskip=0 / chroma_qp_offset=-2 / threads=19 / lookahead_threads=4 / sliced_threads=0 / nr=0 / decimate=1 / interlaced=0 / bluray_compat=0 / constrained_intra=0 / bframes=16 / b_pyramid=2 / b_adapt=2 / b_bias=0 / direct=3 / weightb=1 / open_gop=0 / weightp=2 / keyint=240 / keyint_min=23 / scenecut=40 / intra_refresh=0 / rc_lookahead=60 / rc=crf / mbtree=0 / crf=19.2 / qcomp=0.60 / qpmin=0 / qpmax=69 / qpstep=4 / vbv_maxrate=50000 / vbv_bufsize=62500 / crf_max=0.0 / nal_hrd=none / filler=0 / ip_ratio=1.40 / pb_ratio=1.30 / aq=3:0.80
Language : Russian
Default : Yes
Forced : No
Color range : Limited
Color primaries : BT.709
Transfer characteristics : BT.709
Matrix coefficients : BT.709
Audio #1
ID : 2
Format : AC-3
Format/Info : Audio Coding 3
Commercial name : Dolby Digital
Codec ID : A_AC3
Duration : 1 h 25 min
Bit rate mode : Constant
Bit rate : 384 kb/s
Channel(s) : 6 channels
Channel layout : L R C LFE Ls Rs
Sampling rate : 48.0 kHz
Frame rate : 31.250 FPS (1536 SPF)
Compression mode : Lossy
Stream size : 235 MiB (8%)
Title : MVO (iTunes)
Language : Russian
Service kind : Complete Main
Default : Yes
Forced : No
Audio #2
ID : 3
Format : AC-3
Format/Info : Audio Coding 3
Commercial name : Dolby Digital
Codec ID : A_AC3
Duration : 1 h 25 min
Bit rate mode : Constant
Bit rate : 384 kb/s
Channel(s) : 6 channels
Channel layout : L R C LFE Ls Rs
Sampling rate : 48.0 kHz
Frame rate : 31.250 FPS (1536 SPF)
Compression mode : Lossy
Stream size : 235 MiB (8%)
Title : AVO Гоблин Пучков
Language : Russian
Service kind : Complete Main
Default : No
Forced : No
Audio #3
ID : 4
Format : AC-3
Format/Info : Audio Coding 3
Commercial name : Dolby Digital
Codec ID : A_AC3
Duration : 1 h 25 min
Bit rate mode : Constant
Bit rate : 384 kb/s
Channel(s) : 6 channels
Channel layout : L R C LFE Ls Rs
Sampling rate : 48.0 kHz
Frame rate : 31.250 FPS (1536 SPF)
Compression mode : Lossy
Stream size : 235 MiB (8%)
Title : Original
Language : English
Service kind : Complete Main
Default : No
Forced : No
Text #1
ID : 5
Format : UTF-8
Codec ID : S_TEXT/UTF8
Codec ID/Info : UTF-8 Plain Text
Language : Russian
Default : No
Forced : No
Text #2
ID : 6
Format : UTF-8
Codec ID : S_TEXT/UTF8
Codec ID/Info : UTF-8 Plain Text
Language : English
Default : No
Forced : No
Text #3
ID : 7
Format : UTF-8
Codec ID : S_TEXT/UTF8
Codec ID/Info : UTF-8 Plain Text
Title : SDH
Language : English
Default : No
Forced : No
Menu
00:00:00.000 : en:Chapter 01
00:03:32.671 : en:Chapter 02
00:07:24.611 : en:Chapter 03
00:12:36.923 : en:Chapter 04
00:16:17.935 : en:Chapter 05
00:19:20.993 : en:Chapter 06
00:23:13.142 : en:Chapter 07
00:27:03.789 : en:Chapter 08
00:29:34.606 : en:Chapter 09
00:34:25.689 : en:Chapter 10
00:38:21.549 : en:Chapter 11
00:41:30.238 : en:Chapter 12
00:43:27.438 : en:Chapter 13
00:46:39.588 : en:Chapter 14
00:49:37.558 : en:Chapter 15
00:54:35.314 : en:Chapter 16
00:57:33.450 : en:Chapter 17
01:00:43.431 : en:Chapter 18
01:06:45.460 : en:Chapter 19
01:08:54.505 : en:Chapter 20
01:11:56.437 : en:Chapter 21
01:15:29.984 : en:Chapter 22
01:19:06.325 : en:Chapter 23
01:21:46.944 : en:Chapter 24

Скриншоты

Сравнение с исходником

Rip----------------||-----------------BD - - - -

Доп инфо

Посмотреть разницу между версиями можно на страничке исходника
Раздача рипа с другого исходника. Сравнение: - - -

В сэмпле присутствуют все дорожки
[Profile]  [PM] 
Display posts:    
Reply to topic

Current time is: 20-Jul 03:36

All times are UTC + 2



You cannot post new topics in this forum
You cannot reply to topics in this forum
You cannot edit your posts in this forum
You cannot delete your posts in this forum
You cannot vote in polls in this forum
You cannot attach files in this forum
You cannot download files in this forum