Внебрачные связи / Tromperie / Deception (Арно Деплешен / Arnaud Desplechin) [2021, Франция, драма, BDRip 1080p] Dub (CPI Films) + Sub (Eng, Fra, Deu, Spa) + Original Fra

Reply to topic
 
Author
Message

Faust ®

Gender: Unknown

Longevity: 12 years

Posts: 23187

Reputation: 0 [+] [-]

Faust · Post 18-Jun-2023 03:05

[Quote] 

Внебрачные связи
Tromperie / Deception

Страна: Франция
Жанр: Драма
Год выпуска: 2021
Продолжительность: 01:42:15
Перевод: Профессиональный (дублированный) CPI Films, Кинопоиск HD
Субтитры: Русские (forced), английские, немецкие, испанские .srt, французские (forced, full) .pgs
Оригинальная аудиодорожка: Французский
Режиссер: Арно Деплешен / Arnaud Desplechin
В ролях: Леа Сейду, Дени Подалидес, Эммануэль Дево, Анук Гринбер, Ребекка Мардер, Мадалина Константин, Миглен Миртчев, Саадиа Бентайеб, Андре Умански, Геннадий Фомин
Описание: Известный американский писатель Филип живет с женой в Лондоне. Кроме того, к нему в офис регулярно приходит любовница. Они ссорятся, мирятся, говорят обо всем на свете и занимаются сексом.
ДУБЛЯЖ АС3

Тип релиза: BDRip 1080p
Контейнер: MKV
Видео: MPEG-4 AVC, 1080p, 1920:804 (2.40:1), 17.8 Mbps, 24.000 fps
Аудио 1: E-AC3, 6 ch, 48 kHz, 448 kbps Русский Dub CPI Films, Кинопоиск HD
Аудио 2: E-AC3, 6 ch, 48 kHz, 1024 kbps Французский
Формат субтитров: SRT, PGS

MediaInfo

x264 [info]: frame I:864   Avg QP:15.20  size:216740x264 [info]: frame P:28594 Avg QP:16.11  size:135027x264 [info]: frame B:117782 Avg QP:17.42  size: 81438x264 [info]: consecutive B-frames:  1.1%  1.1%  5.3% 12.9% 17.9% 47.8%  7.9%  2.2%  1.4%  1.2%  1.1%
GeneralUnique ID : 58432878316094182683521004049210937093 (0x2BF5C35487975076D0E524BEFB4E0F05)Complete name : G:\Tromperie.2021.BDRip.1080p.mkvFormat : MatroskaFormat version : Version 4File size : 13.8 GiBDuration : 1 h 42 minOverall bit rate : 19.3 Mb/sEncoded date : UTC 2023-06-17 04:06:54Writing application : mkvmerge v20.0.0 ('I Am The Sun') 64-bitWriting library : libebml v1.3.5 + libmatroska v1.4.8
VideoID : 1Format : AVCFormat/Info : Advanced Video CodecFormat profile : High@L4.1Format settings : CABAC / 4 Ref FramesFormat settings, CABAC : YesFormat settings, Reference frames : 4 framesCodec ID : V_MPEG4/ISO/AVCDuration : 1 h 42 minBit rate : 17.8 Mb/sWidth : 1 920 pixelsHeight : 804 pixelsDisplay aspect ratio : 2.40:1Frame rate mode : ConstantFrame rate : 24.000 FPSColor space : YUVChroma subsampling : 4:2:0Bit depth : 8 bitsScan type : ProgressiveBits/(Pixel*Frame) : 0.480Stream size : 12.7 GiB (92%)Title : SbRWriting library : x264 core 164 r3106+49 2efe26b devel [(8 & 10)-bit@all X86_64]Encoding settings : cabac=1 / ref=4 / deblock=1:-3:-3 / analyse=0x3:0x133 / me=umh / subme=11 / psy=1 / fade_compensate=0.00 / psy_rd=1.00:0.00 / mixed_ref=1 / me_range=32 / chroma_me=1 / trellis=2 / 8x8dct=1 / cqm=0 / deadzone=21,11 / fast_pskip=1 / chroma_qp_offset=-2 / threads=32 / lookahead_threads=6 / sliced_threads=0 / nr=0 / decimate=1 / interlaced=0 / bluray_compat=0 / constrained_intra=0 / fgo=0 / bframes=10 / b_pyramid=2 / b_adapt=2 / b_bias=0 / direct=3 / weightb=1 / open_gop=0 / weightp=2 / keyint=250 / keyint_min=24 / scenecut=40 / intra_refresh=0 / rc=crf / mbtree=0 / crf=17.5000 / qcomp=0.60 / qpmin=0:0:0 / qpmax=69:69:69 / qpstep=4 / ip_ratio=1.25 / pb_ratio=1.20 / aq=3:0.80 / aq-sensitivity=10.00 / aq-factor=1.00:1.00:1.00 / aq2=0 / aq3=0Language : FrenchDefault : YesForced : No
Audio #1ID : 2Format : E-AC-3Format/Info : Enhanced AC-3Commercial name : Dolby Digital PlusCodec ID : A_EAC3Duration : 1 h 42 minBit rate mode : ConstantBit rate : 448 kb/sChannel(s) : 6 channelsChannel layout : L R C LFE Ls RsSampling rate : 48.0 kHzFrame rate : 31.250 FPS (1536 SPF)Compression mode : LossyStream size : 328 MiB (2%)Title : Dub CPI FilmsLanguage : RussianService kind : Complete MainDefault : YesForced : No
Audio #2ID : 3Format : E-AC-3Format/Info : Enhanced AC-3Commercial name : Dolby Digital PlusCodec ID : A_EAC3Duration : 1 h 42 minBit rate mode : ConstantBit rate : 1 024 kb/sChannel(s) : 6 channelsChannel layout : L R C LFE Ls RsSampling rate : 48.0 kHzFrame rate : 31.250 FPS (1536 SPF)Compression mode : LossyStream size : 749 MiB (5%)Language : FrenchService kind : Complete MainDefault : NoForced : No
Text #1ID : 4Format : UTF-8Codec ID : S_TEXT/UTF8Codec ID/Info : UTF-8 Plain TextDuration : 1 h 26 minBit rate : 0 b/sCount of elements : 11Stream size : 216 Bytes (0%)Title : forcedLanguage : RussianDefault : YesForced : No
Text #2ID : 5Format : PGSMuxing mode : zlibCodec ID : S_HDMV/PGSCodec ID/Info : Picture based subtitle format used on BDs/HD-DVDsDuration : 32 min 9 sBit rate : 1 054 b/sCount of elements : 30Stream size : 248 KiB (0%)Title : forcedLanguage : FrenchDefault : NoForced : No
Text #3ID : 6Format : PGSMuxing mode : zlibCodec ID : S_HDMV/PGSCodec ID/Info : Picture based subtitle format used on BDs/HD-DVDsDuration : 1 h 41 minBit rate : 39.9 kb/sCount of elements : 3934Stream size : 29.0 MiB (0%)Language : FrenchDefault : NoForced : No
Text #4ID : 7Format : UTF-8Codec ID : S_TEXT/UTF8Codec ID/Info : UTF-8 Plain TextDuration : 1 h 39 minBit rate : 66 b/sCount of elements : 1753Stream size : 48.3 KiB (0%)Language : EnglishDefault : NoForced : No
Text #5ID : 8Format : UTF-8Codec ID : S_TEXT/UTF8Codec ID/Info : UTF-8 Plain TextDuration : 1 h 39 minBit rate : 80 b/sCount of elements : 1754Stream size : 58.5 KiB (0%)Language : GermanDefault : NoForced : No
Text #6ID : 9Format : UTF-8Codec ID : S_TEXT/UTF8Codec ID/Info : UTF-8 Plain TextDuration : 1 h 39 minBit rate : 70 b/sCount of elements : 1733Stream size : 51.7 KiB (0%)Language : SpanishDefault : NoForced : No
Menu00:00:00.000 : en:Chapter 100:20:24.583 : en:Chapter 200:26:55.000 : en:Chapter 300:30:56.625 : en:Chapter 400:42:00.500 : en:Chapter 500:45:31.375 : en:Chapter 600:48:50.750 : en:Chapter 701:00:01.708 : en:Chapter 801:09:43.750 : en:Chapter 901:13:09.375 : en:Chapter 1001:23:50.958 : en:Chapter 1101:31:02.291 : en:Chapter 1201:40:21.708 : en:Chapter 13

Скриншоты


[Profile]  [PM] 
Display posts:    
Reply to topic

Current time is: 20-Jul 03:35

All times are UTC + 2



You cannot post new topics in this forum
You cannot reply to topics in this forum
You cannot edit your posts in this forum
You cannot delete your posts in this forum
You cannot vote in polls in this forum
You cannot attach files in this forum
You cannot download files in this forum