Удар / Punch (Уэлби Ингс / Welby Ings) [2022, Новая Зеландия, драма, спорт, WEB-DL 1080p] MVO (Jaskier) + Sub Eng + Original Eng

Reply to topic
 
Author
Message

Faust ®

Gender: Unknown

Longevity: 12 years

Posts: 23187

Reputation: 0 [+] [-]

Faust · Post 18-Jun-2023 03:05

[Quote] 

Удар
Punch

Страна: Новая Зеландия
Жанр: Драма, спорт
Год выпуска: 2022
Продолжительность: 01:39:02
Перевод: Профессиональный (многоголосый закадровый) Jaskier ненормативная лексика
Субтитры: Английские
Оригинальная аудиодорожка: Английский
Режиссер: Уэлби Ингс / Welby Ings
В ролях: Тим Рот, Конан Хэйес, Карл Виллетц, Jordan Oosterhof, Abigail Laurent, Sage Klein, Matt Hicks, Connor Johnston, Simon McConnon, Stephanie Cope
Описание: Джим — семнадцатилетний начинающий боксер из маленького новозеландского городка, мечтающий вырваться в большой мир. Под руководством отца-алкоголика он готовится к бою, который поднимет его до профессионального статуса. Но вскоре Джим сталкивается с парнем-маори Фэту, который проводит свои дни в старой лачуге на пляже и мечтает уехать из города со своей собакой и стать музыкантом. Эта встреча заставит Джима переосмыслить траекторию своей жизни.
Спасибо kro44i за дорожку

Тип релиза: WEB-DL 1080p
Контейнер: MKV
Видео: MPEG-4 AVC, 1080p, 1920:1080 (16:9), 7929 kbps, 23.976 fps
Аудио 1: АС3, 6 ch, 48 kHz, 448 kbps Русский MVO Jaskier ненормативная лексика
Аудио 2: E-AC3, 6 ch, 48 kHz, 640 kbps Английский
Формат субтитров: SRT

MediaInfo

GeneralUnique ID                                : 271350956893945436132391115939355733717 (0xCC244B17CE9FFE646B89CD88F85AAED5)Complete name                            : G:\Punch.2022.WEB-DL.1080p.mkvFormat                                   : MatroskaFormat version                           : Version 4File size                                : 6.24 GiBDuration                                 : 1 h 39 minOverall bit rate                         : 9 020 kb/sEncoded date                             : UTC 2023-06-16 13:37:47Writing application                      : mkvmerge v20.0.0 ('I Am The Sun') 64-bitWriting library                          : libebml v1.3.5 + libmatroska v1.4.8
VideoID : 1Format : AVCFormat/Info : Advanced Video CodecFormat profile : High@L4Format settings : CABAC / 4 Ref FramesFormat settings, CABAC : YesFormat settings, Reference frames : 4 framesCodec ID : V_MPEG4/ISO/AVCDuration : 1 h 39 minBit rate mode : ConstantBit rate : 7 929 kb/sNominal bit rate : 10 000 kb/sWidth : 1 920 pixelsHeight : 1 080 pixelsDisplay aspect ratio : 16:9Frame rate mode : ConstantFrame rate : 23.976 (24000/1001) FPSColor space : YUVChroma subsampling : 4:2:0Bit depth : 8 bitsScan type : ProgressiveBits/(Pixel*Frame) : 0.159Stream size : 5.48 GiB (88%)Language : EnglishDefault : YesForced : NoColor range : LimitedColor primaries : BT.709Transfer characteristics : BT.709Matrix coefficients : BT.709
Audio #1ID : 2Format : AC-3Format/Info : Audio Coding 3Commercial name : Dolby DigitalCodec ID : A_AC3Duration : 1 h 39 minBit rate mode : ConstantBit rate : 448 kb/sChannel(s) : 6 channelsChannel layout : L R C LFE Ls RsSampling rate : 48.0 kHzFrame rate : 31.250 FPS (1536 SPF)Compression mode : LossyStream size : 317 MiB (5%)Title : MVO Jaskier ненормативная лексикаLanguage : RussianService kind : Complete MainDefault : YesForced : No
Audio #2ID : 3Format : E-AC-3Format/Info : Enhanced AC-3Commercial name : Dolby Digital PlusCodec ID : A_EAC3Duration : 1 h 39 minBit rate mode : ConstantBit rate : 640 kb/sChannel(s) : 6 channelsChannel layout : L R C LFE Ls RsSampling rate : 48.0 kHzFrame rate : 31.250 FPS (1536 SPF)Compression mode : LossyStream size : 453 MiB (7%)Language : EnglishService kind : Complete MainDefault : NoForced : No
TextID : 4Format : UTF-8Codec ID : S_TEXT/UTF8Codec ID/Info : UTF-8 Plain TextDuration : 1 h 34 minBit rate : 30 b/sCount of elements : 876Stream size : 21.4 KiB (0%)Language : EnglishDefault : NoForced : No

Скриншоты



[Profile]  [PM] 
Display posts:    
Reply to topic

Current time is: 20-Jul 03:34

All times are UTC + 2



You cannot post new topics in this forum
You cannot reply to topics in this forum
You cannot edit your posts in this forum
You cannot delete your posts in this forum
You cannot vote in polls in this forum
You cannot attach files in this forum
You cannot download files in this forum