Красивые существа / Berdreymi / Beautiful Beings (Гутмундур Арнар Гудмундсон / Guðmundur Arnar Guðmundsson) [2022, Исландия, Дания, Швеция, Нидерланды, Чехия, драма, BDRip 1080p] DVO (Pazl Voice) + Sub (Rus, Eng etc.) + Original Ice

Reply to topic
 
Author
Message

Faust ®

Gender: Unknown

Longevity: 12 years

Posts: 23187

Reputation: 0 [+] [-]

Faust · Post 18-Jun-2023 03:05

[Quote] 

Красивые существа
Berdreymi / Beautiful Beings

Страна: Исландия, Дания, Швеция, Нидерланды, Чехия
Жанр: Драма
Год выпуска: 2022
Продолжительность: 02:02:53
Перевод: Любительский (двухголосый закадровый) Pazl Voice
Субтитры: Русские (forced, full Nebëhr Gudahtt ненормативная лексика), английские, финские, шведские, датские, норвежские
Оригинальная аудиодорожка: Исландский
Режиссер: Гутмундур Арнар Гудмундсон / Guðmundur Arnar Guðmundsson
В ролях: Birgir Dagur Bjarkason, Áskell Einar Pálmason, Viktor Benóný Benediktsson, Snorri Rafn Frímannsson, Kristín Ísold Jóhannesdóttir, Blær Hinriksson, Theodór Pálsson, Анита Брием, Исгердюр Эльфа Гюннарсдоутир, Оулавюр Дарри Оулафссон
Описание: История об Адди (Арднаре), подростке из Рейкьявика. Он и его друзья растут без присмотра и привыкли разрешать споры при помощи драк, однако в какой-то момент Адди начинает испытывать отвращение к насилию и берет под свою защиту забитого мальчика Балли. Адди с друзьями попадают в серьезные неприятности, однако существует надежда, что им удастся найти путь к лучшей жизни.
Спасибо kro44i за дорожку

Тип релиза: BDRip 1080p
Контейнер: MKV
Видео: MPEG-4 AVC, 1080p, 1920:1038 (1.85:1), 18.0 Mbps, 24.000 fps
Аудио 1: АС3, 6 ch, 48 kHz, 448 kbps Русский DVO Pazl Voice
Аудио 2: E-AC3, 6 ch, 48 kHz, 1024 kbps Исландский
Формат субтитров: SRT

MediaInfo

GeneralUnique ID                                : 162803089415581193539764686783860176850 (0x7A7ABC07D391C9BAFA224DFB1797F7D2)Complete name                            : G:\Berdreymi.2022.BDRip.1080p.mkvFormat                                   : MatroskaFormat version                           : Version 4File size                                : 16.7 GiBDuration                                 : 2 h 2 minOverall bit rate                         : 19.5 Mb/sEncoded date                             : UTC 2023-06-17 18:02:38Writing application                      : mkvmerge v20.0.0 ('I Am The Sun') 64-bitWriting library                          : libebml v1.3.5 + libmatroska v1.4.8
VideoID : 1Format : AVCFormat/Info : Advanced Video CodecFormat profile : High@L4.1Format settings : CABAC / 4 Ref FramesFormat settings, CABAC : YesFormat settings, Reference frames : 4 framesCodec ID : V_MPEG4/ISO/AVCDuration : 2 h 2 minBit rate : 18.0 Mb/sWidth : 1 920 pixelsHeight : 1 038 pixelsDisplay aspect ratio : 1.85:1Frame rate mode : ConstantFrame rate : 24.000 FPSColor space : YUVChroma subsampling : 4:2:0Bit depth : 8 bitsScan type : ProgressiveBits/(Pixel*Frame) : 0.377Stream size : 15.5 GiB (92%)Title : SbRWriting library : x264 core 164 r3106+49 2efe26b devel [(8 & 10)-bit@all X86_64]Encoding settings : cabac=1 / ref=4 / deblock=1:-3:-3 / analyse=0x3:0x133 / me=umh / subme=11 / psy=1 / fade_compensate=0.00 / psy_rd=1.00:0.00 / mixed_ref=1 / me_range=32 / chroma_me=1 / trellis=2 / 8x8dct=1 / cqm=0 / deadzone=21,11 / fast_pskip=1 / chroma_qp_offset=-2 / threads=32 / lookahead_threads=8 / sliced_threads=0 / nr=0 / decimate=1 / interlaced=0 / bluray_compat=0 / constrained_intra=0 / fgo=0 / bframes=10 / b_pyramid=2 / b_adapt=2 / b_bias=0 / direct=3 / weightb=1 / open_gop=0 / weightp=2 / keyint=250 / keyint_min=24 / scenecut=40 / intra_refresh=0 / rc=crf / mbtree=0 / crf=19.5000 / qcomp=0.60 / qpmin=0:0:0 / qpmax=69:69:69 / qpstep=4 / ip_ratio=1.25 / pb_ratio=1.20 / aq=3:0.80 / aq-sensitivity=10.00 / aq-factor=1.00:1.00:1.00 / aq2=0 / aq3=0Language : EnglishDefault : YesForced : No
Audio #1ID : 2Format : AC-3Format/Info : Audio Coding 3Commercial name : Dolby DigitalCodec ID : A_AC3Duration : 2 h 2 minBit rate mode : ConstantBit rate : 448 kb/sChannel(s) : 6 channelsChannel layout : L R C LFE Ls RsSampling rate : 48.0 kHzFrame rate : 31.250 FPS (1536 SPF)Compression mode : LossyStream size : 393 MiB (2%)Title : DVO Pazl VoiceLanguage : RussianService kind : Complete MainDefault : YesForced : No
Audio #2ID : 3Format : E-AC-3Format/Info : Enhanced AC-3Commercial name : Dolby Digital PlusCodec ID : A_EAC3Duration : 2 h 2 minBit rate mode : ConstantBit rate : 1 024 kb/sChannel(s) : 6 channelsChannel layout : L R C LFE Ls RsSampling rate : 48.0 kHzFrame rate : 31.250 FPS (1536 SPF)Compression mode : LossyStream size : 900 MiB (5%)Language : IcelandicService kind : Complete MainDefault : NoForced : No
Text #1ID : 4Format : UTF-8Codec ID : S_TEXT/UTF8Codec ID/Info : UTF-8 Plain TextDuration : 27 min 0 sBit rate : 0 b/sCount of elements : 2Stream size : 104 Bytes (0%)Title : forcedLanguage : RussianDefault : YesForced : No
Text #2ID : 5Format : UTF-8Codec ID : S_TEXT/UTF8Codec ID/Info : UTF-8 Plain TextDuration : 1 h 56 minBit rate : 50 b/sCount of elements : 942Stream size : 43.3 KiB (0%)Title : Nebehr Gudahtt ненормативная лексикаLanguage : RussianDefault : NoForced : No
Text #3ID : 6Format : UTF-8Codec ID : S_TEXT/UTF8Codec ID/Info : UTF-8 Plain TextDuration : 1 h 55 minBit rate : 29 b/sCount of elements : 785Stream size : 25.4 KiB (0%)Language : EnglishDefault : NoForced : No
Text #4ID : 7Format : UTF-8Codec ID : S_TEXT/UTF8Codec ID/Info : UTF-8 Plain TextDuration : 1 h 57 minBit rate : 25 b/sCount of elements : 634Stream size : 21.8 KiB (0%)Language : FinnishDefault : NoForced : No
Text #5ID : 8Format : UTF-8Codec ID : S_TEXT/UTF8Codec ID/Info : UTF-8 Plain TextDuration : 1 h 55 minBit rate : 26 b/sCount of elements : 726Stream size : 22.6 KiB (0%)Language : SwedishDefault : NoForced : No
Text #6ID : 9Format : UTF-8Codec ID : S_TEXT/UTF8Codec ID/Info : UTF-8 Plain TextDuration : 1 h 55 minBit rate : 27 b/sCount of elements : 727Stream size : 23.2 KiB (0%)Language : DanishDefault : NoForced : No
Text #7ID : 10Format : UTF-8Codec ID : S_TEXT/UTF8Codec ID/Info : UTF-8 Plain TextDuration : 1 h 57 minBit rate : 25 b/sCount of elements : 722Stream size : 22.1 KiB (0%)Language : NorwegianDefault : NoForced : No
Menu00:00:00.000 : en:Chapter 0100:15:35.792 : en:Chapter 0200:30:07.083 : en:Chapter 0300:46:21.625 : en:Chapter 0401:01:28.833 : en:Chapter 0501:14:45.833 : en:Chapter 0601:31:46.875 : en:Chapter 0701:48:24.583 : en:Chapter 08

Скриншоты



[Profile]  [PM] 
Display posts:    
Reply to topic

Current time is: 20-Jul 03:33

All times are UTC + 2



You cannot post new topics in this forum
You cannot reply to topics in this forum
You cannot edit your posts in this forum
You cannot delete your posts in this forum
You cannot vote in polls in this forum
You cannot attach files in this forum
You cannot download files in this forum