Дочь д`Артаньяна / La fille de d\'Artagnan (Бертран Тавернье / Bertrand Tavernier) [1994, Франция, комедия, приключения, DVDRip-AVC] AVO (Леонид Володарский) + Original Eng

Reply to topic
 
Author
Message

Satyr ®

Gender: Unknown

Longevity: 15 years

Posts: 22031

Reputation: 56 [+] [-]

Satyr · Post 18-Jun-2023 07:10

[Quote] 

Дочь д`Артаньяна / La fille de d'Artagnan
Страна: Франция
Жанр: комедия, приключения
Год выпуска: 1994
Продолжительность: 02:09:40
Перевод: Авторский (одноголосый закадровый) Леонид Володарский
Субтитры: нет
Оригинальная аудиодорожка: английский
Режиссер: Бертран Тавернье / Bertrand Tavernier
В ролях: Софи Марсо, Филипп Нуаре, Клод Риш, Сами Фрей, Жан-Люк Бидо, Рауль Бийре, Шарлотт Кади, Нильс Тавернье, Джиджи Пройетти, Жан-Поль Руссийон
Описание: Прославленный герой уготовил своей дочери Элоизе роль послушницы в монастыре. Но отважная девушка смело бросается в бой с врагами, убившими на её глазах мать-настоятельницу. Ей приходится не только мастерски фехтовать, но и распутывать коварные интриги. И, конечно, она влюбляется в благородного красавца.
Доп. информация: Дорожку с переводом синхронизировал ale_x2008
За дорожку благодарим - Glowamy

Релиз
Сэмпл: https://www.sendspace.com/file/obpavw
Качество видео: DVDRip-AVC
Формат видео: MKV
Видео: MPEG4 Video (H264) 704x384 23.976fps Bit rate 1 240 kb/s
Аудио: Dolby AC3 48000Hz 2 ch 192kbps
Аудио 2: Dolby AC3 48000Hz 2 ch 192kbps French

MediaInfo

Дочь д`Артаньяна (La fille de d'Artagnan) [by ale_x2008].mkvFormat                      : MatroskaFormat version              : Version 4File size                   : 1.47 GiBDuration                    : 2 h 9 minOverall bit rate            : 1 626 kb/sFrame rate                  : 23.976 FPSEncoded date                : 2023-06-17 12:34:20 UTCWriting application         : mkvmerge v71.0.0 ('Altitude') 64-bitWriting library             : libebml v1.4.4 + libmatroska v1.7.1
VideoID : 1Format : AVCFormat/Info : Advanced Video CodecFormat profile : High@L4.1Format settings : CABAC / 16 Ref FramesFormat settings, CABAC : YesFormat settings, Reference : 16 framesCodec ID : V_MPEG4/ISO/AVCDuration : 2 h 9 minBit rate : 1 240 kb/sWidth : 704 pixelsHeight : 384 pixelsDisplay aspect ratio : 1.85:1Frame rate mode : ConstantFrame rate : 23.976 (24000/1001) FPSOriginal frame rate : 23.976 (23976/1000) FPSColor space : YUVChroma subsampling : 4:2:0Bit depth : 8 bitsScan type : ProgressiveBits/(Pixel*Frame) : 0.191Stream size : 1.12 GiB (76%)Writing library : x264 core 148 r2638 7599210Encoding settings : cabac=1 / ref=16 / deblock=1:-3:-3 / analyse=0x3:0x133 / me=umh / subme=9 / psy=1 / psy_rd=1.00:0.00 / mixed_ref=1 / me_range=32 / chroma_me=1 / trellis=2 / 8x8dct=1 / cqm=0 / deadzone=21,11 / fast_pskip=1 / chroma_qp_offset=-2 / threads=12 / lookahead_threads=3 / sliced_threads=0 / nr=0 / decimate=1 / interlaced=0 / bluray_compat=0 / constrained_intra=0 / bframes=10 / b_pyramid=0 / b_adapt=2 / b_bias=0 / direct=3 / weightb=1 / open_gop=0 / weightp=2 / keyint=250 / keyint_min=23 / scenecut=40 / intra_refresh=0 / rc=crf / mbtree=0 / crf=19.0 / qcomp=0.60 / qpmin=0 / qpmax=69 / qpstep=4 / ip_ratio=1.40 / pb_ratio=1.30 / aq=1:1.00Default : YesForced : No
Audio #1ID : 2Format : AC-3Format/Info : Audio Coding 3Commercial name : Dolby DigitalCodec ID : A_AC3Duration : 2 h 9 minBit rate mode : ConstantBit rate : 192 kb/sChannel(s) : 2 channelsChannel layout : L RSampling rate : 48.0 kHzFrame rate : 31.250 FPS (1536 SPF)Compression mode : LossyStream size : 178 MiB (12%)Language : RussianService kind : Complete MainDefault : YesForced : No
Audio #2ID : 3Format : AC-3Format/Info : Audio Coding 3Commercial name : Dolby DigitalCodec ID : A_AC3Duration : 2 h 9 minBit rate mode : ConstantBit rate : 192 kb/sChannel(s) : 2 channelsChannel layout : L RSampling rate : 48.0 kHzFrame rate : 31.250 FPS (1536 SPF)Compression mode : LossyStream size : 178 MiB (12%)Language : FrenchService kind : Complete MainDefault : NoForced : No

Скриншоты


[Profile]  [PM] 
Display posts:    
Reply to topic

Current time is: 20-Jul 01:49

All times are UTC + 2



You cannot post new topics in this forum
You cannot reply to topics in this forum
You cannot edit your posts in this forum
You cannot delete your posts in this forum
You cannot vote in polls in this forum
You cannot attach files in this forum
You cannot download files in this forum