Фантоцци 2000 — Клонирование / Fantozzi 2000 - La clonazione (Доменико Саверни / Domenico Saverni) [1999, Италия, комедия, DVDRip-AVC] MVO (Intra Communications) + Sub Rus, Ita + Original Ita

Reply to topic
 
Author
Message

Satyr ®

Gender: Unknown

Longevity: 15 years

Posts: 22045

Reputation: 56 [+] [-]

Satyr · Post 18-Jun-2023 07:10

[Quote] 

Фантоцци 2000 — Клонирование / Fantozzi 2000 - La clonazione
Страна: Италия
Жанр: комедия
Год выпуска: 1999
Продолжительность: 01:33:48
Перевод: Профессиональный (многоголосый закадровый) Intra Communications
Субтитры: русские, итальянские
Оригинальная аудиодорожка: итальянский
Режиссер: Доменико Саверни / Domenico Saverni
В ролях: Паоло Вилладжо, Милена Вукотич, Анна Маццамауро, Паоло Паолони,Доди Конти,Стефано Машьярелли,Мирта Пепе,Ирма Капече Минутоло,Альдо Ралли,Эвелина Гори...
Описание: Руководство Мега-Фирмы обеспокоено тем, что сотрудники совершенно выбились из-под контроля. Вдруг они вспоминают про самого услужливого и исполнительно работника - бухгалтера Уго Фантоцци. Они решают пригласить его снова на работу, но вот беда - он умер несколько лет назад. Но руководство компании это не останавливает. С помощью новейших технологий, используя волосы покойного бухгалтера, ученые создают клона, ничем не отличающегося от покойника. Фантоцци узнает свою жену, своего директора и со следующего же дня ревностно принимается исполнять свои служебные обязанности.
Сэмпл: http://sendfile.su/1670172
Качество видео: DVDRip-AVC
Формат видео: MKV
Видео: 712x460 (1.650) @ 760x460, 25.000 fps, AVC, ~2760 Kbps, 0.337 bits/pixel
Аудио 1: Russian, 48.0 KHz, AC3, 2 ch, 192 Kbps - Intra Communications
Аудио 2: Italian, 48.0 KHz, AC3, 2 ch, 192 Kbps

MediaInfo

GeneralUnique ID                   : 180325765650728893345602652252767583311 (0x87A97AAB9D4FA4A4E2422EB83B30FC4F)Complete name               : E:\Fantozzi 2000 - La clonazione.mkvFormat                      : MatroskaFormat version              : Version 4File size                   : 2.06 GiBDuration                    : 1 h 33 minOverall bit rate            : 3 146 kb/sEncoded date                : UTC 2023-06-17 18:37:56Writing application         : mkvmerge v44.0.0 ('Domino') 64-bitWriting library             : libebml v1.3.10 + libmatroska v1.5.2
VideoID : 1Format : AVCFormat/Info : Advanced Video CodecFormat profile : High@L4.1Format settings : CABAC / 9 Ref FramesFormat settings, CABAC : YesFormat settings, Reference : 9 framesCodec ID : V_MPEG4/ISO/AVCDuration : 1 h 33 minBit rate : 2 760 kb/sWidth : 712 pixelsHeight : 460 pixelsDisplay aspect ratio : 5:3Original display aspect rat : 5:3Frame rate mode : ConstantFrame rate : 25.000 FPSColor space : YUVChroma subsampling : 4:2:0Bit depth : 8 bitsScan type : ProgressiveBits/(Pixel*Frame) : 0.337Stream size : 1.81 GiB (88%)Writing library : x264 core 164 r3106 eaa68faEncoding settings : cabac=1 / ref=9 / deblock=1:-1:-1 / analyse=0x3:0x113 / me=umh / subme=10 / psy=1 / psy_rd=1.00:0.00 / mixed_ref=1 / me_range=32 / chroma_me=1 / trellis=2 / 8x8dct=1 / cqm=0 / deadzone=21,11 / fast_pskip=0 / chroma_qp_offset=-2 / threads=6 / lookahead_threads=1 / sliced_threads=0 / nr=0 / decimate=0 / interlaced=0 / bluray_compat=0 / constrained_intra=0 / bframes=10 / b_pyramid=2 / b_adapt=2 / b_bias=0 / direct=3 / weightb=1 / open_gop=0 / weightp=2 / keyint=250 / keyint_min=25 / scenecut=40 / intra_refresh=0 / rc_lookahead=40 / rc=2pass / mbtree=0 / bitrate=2760 / ratetol=1.0 / qcomp=0.60 / qpmin=0 / qpmax=69 / qpstep=4 / cplxblur=20.0 / qblur=0.5 / vbv_maxrate=50000 / vbv_bufsize=62500 / nal_hrd=none / filler=0 / ip_ratio=1.40 / pb_ratio=1.30 / aq=1:1.00Language : ItalianDefault : YesForced : No
Audio #1ID : 2Format : AC-3Format/Info : Audio Coding 3Commercial name : Dolby DigitalCodec ID : A_AC3Duration : 1 h 33 minBit rate mode : ConstantBit rate : 192 kb/sChannel(s) : 2 channelsChannel layout : L RSampling rate : 48.0 kHzFrame rate : 31.250 FPS (1536 SPF)Compression mode : LossyStream size : 129 MiB (6%)Title : Intra CommunicationsLanguage : RussianService kind : Complete MainDefault : YesForced : No
Audio #2ID : 3Format : AC-3Format/Info : Audio Coding 3Commercial name : Dolby DigitalCodec ID : A_AC3Duration : 1 h 33 minBit rate mode : ConstantBit rate : 192 kb/sChannel(s) : 2 channelsChannel layout : L RSampling rate : 48.0 kHzFrame rate : 31.250 FPS (1536 SPF)Compression mode : LossyStream size : 129 MiB (6%)Language : ItalianService kind : Complete MainDefault : NoForced : No
Text #1ID : 4Format : UTF-8Codec ID : S_TEXT/UTF8Codec ID/Info : UTF-8 Plain TextDuration : 1 h 30 minBit rate : 145 b/sCount of elements : 1095Stream size : 96.3 KiB (0%)Language : RussianDefault : NoForced : No
Text #2ID : 5Format : UTF-8Codec ID : S_TEXT/UTF8Codec ID/Info : UTF-8 Plain TextDuration : 1 h 30 minBit rate : 83 b/sCount of elements : 1447Stream size : 55.7 KiB (0%)Language : ItalianDefault : NoForced : No
Menu00:00:00.000 : it:01. Ragioniere clonato00:07:07.200 : it:02. Di nuovo al lavoro00:10:12.960 : it:03. Adalberto Maria00:19:46.080 : it:04. Tentativi di fuga00:22:07.200 : it:05. Allo zoo00:28:14.880 : it:06. Superenalotto00:35:12.000 : it:07. Ottantasette miliardi00:39:13.440 : it:08. Investito dalla fortuna00:45:00.960 : it:09. La finale00:51:53.760 : it:10. “Ti stimomoltissimo”00:56:40.320 : it:11. Uga01:03:40.800 : it:12. Spogliarello maschile01:10:10.080 : it:13. Scarponi01:15:11.040 : it:14. Capodonno 200001:25:15.840 : it:15. 144 anni01:28:13.920 : it:16. Tre fucili

Скриншоты

[Profile]  [PM] 
Display posts:    
Reply to topic

Current time is: 25-Jul 04:57

All times are UTC + 2



You cannot post new topics in this forum
You cannot reply to topics in this forum
You cannot edit your posts in this forum
You cannot delete your posts in this forum
You cannot vote in polls in this forum
You cannot attach files in this forum
You cannot download files in this forum