Успеть до полуночи / Midnight Run (Мартин Брест / Martin Brest) [1988, США, криминал, приключения, комедия, триллер, боевик, BDRip] AVO (Василий Горчаков) + Original Eng

Reply to topic
 
Author
Message

Satyr ®

Gender: Unknown

Longevity: 15 years

Posts: 22031

Reputation: 56 [+] [-]

Satyr · Post 18-Jun-2023 07:10

[Quote] 

Успеть до полуночи / Midnight Run
Страна: США
Жанр: криминал, приключения, комедия, триллер, боевик
Год выпуска: 1988
Продолжительность: 02:06:19
Перевод: Авторский (одноголосый закадровый) Василий Горчаков
Субтитры: нет
Оригинальная аудиодорожка: английский
Режиссер: Мартин Брест / Martin Brest
В ролях: Роберт Де Ниро, Чарльз Гродин, Яфет Котто, Джон Эштон, Деннис Фарина, Джо Пантольяно, Ричард Форонджи, Роберт Миранда, Джек Кихоу, Уэнди Филлипс.
Описание: Джек Уолш — опытный профессионал, мастер своего дела. Когда-то он служил в полиции, а теперь занимается частным сыском. Его специализация — операции по поимке беглых преступников. В этот раз Джек занят поисками Джонатана Мардукаса, известного под кличкой «Герцог». Мардукас, скромный и интеллигентный бухгалтер, умудрился украсть у мафии 15 миллионов долларов. По договоренности Джек должен поймать «Герцога», заковать в наручники и доставить на самолете из Нью-Йорка в Лос-Анджелес в условленный срок. За это Уолш получит целых сто тысяч долларов.
Для искушенного «охотника за головами» подобное задание — сущий пустяк. Но Джек не учел, что помимо него за Мардукасом активно охотятся гангстеры, ФБР и вероломный коллега-конкурент. Более того, Мардукас панически боится летать и Джеку предстоит везти Герцога через всю Америку.
Доп. информация: Перевод синхронизировал ale_x2008
Дорожка из соцсетей.
Релиз
Сэмпл: https://www.sendspace.com/file/093sot
Качество видео: BDRip
Формат видео: AVI
Видео: 704x384 (1.83:1), 23.976 fps, XviD build 67 ~1824 kbps avg, 0.28 bit/pixel
Аудио: 48 kHz, AC3 Dolby Digital, 2/0 (L,R) ch (моно), ~192 kbps
Аудио 2: 48 kHz, AC3 Dolby Digital, 3/2 (L,C,R,l,r) + LFE ch, ~448 kbps

MediaInfo

Успеть до полуночи (Midnight Run) BDRip [by ale_x2008].aviFormat                      : AVIFormat/Info                 : Audio Video InterleaveFormat profile              : OpenDMLFormat settings             : WaveFormatExFile size                   : 2.18 GiBDuration                    : 2 h 6 minOverall bit rate            : 2 471 kb/sFrame rate                  : 23.976 FPSWriting application         : VirtualDubMod 1.5.10.2 (build 2540/release)
VideoID : 0Format : MPEG-4 VisualFormat profile : Advanced Simple@L5Format settings : BVOP1 / Custom MatrixFormat settings, BVOP : 1Format settings, QPel : NoFormat settings, GMC : No warppointsFormat settings, Matrix : CustomCodec ID : XVIDCodec ID/Hint : XviDDuration : 2 h 6 minBit rate : 1 813 kb/sWidth : 704 pixelsHeight : 384 pixelsDisplay aspect ratio : 1.85:1Frame rate : 23.976 (24000/1001) FPSColor space : YUVChroma subsampling : 4:2:0Bit depth : 8 bitsScan type : ProgressiveCompression mode : LossyBits/(Pixel*Frame) : 0.280Stream size : 1.60 GiB (73%)Writing library : XviD 67
Audio #1ID : 1Format : AC-3Format/Info : Audio Coding 3Commercial name : Dolby DigitalCodec ID : 2000Duration : 2 h 6 minBit rate mode : ConstantBit rate : 192 kb/sChannel(s) : 2 channelsChannel layout : L RSampling rate : 48.0 kHzFrame rate : 31.250 FPS (1536 SPF)Compression mode : LossyStream size : 173 MiB (8%)Alignment : Split across interleavesInterleave, duration : 42 ms (1.00 video frame)Interleave, preload duratio : 500 msService kind : Complete Main
Audio #2ID : 2Format : AC-3Format/Info : Audio Coding 3Commercial name : Dolby DigitalCodec ID : 2000Duration : 2 h 6 minBit rate mode : ConstantBit rate : 448 kb/sChannel(s) : 6 channelsChannel layout : L R C LFE Ls RsSampling rate : 48.0 kHzFrame rate : 31.250 FPS (1536 SPF)Compression mode : LossyStream size : 405 MiB (18%)Alignment : Split across interleavesInterleave, duration : 42 ms (1.00 video frame)Interleave, preload duratio : 500 msService kind : Complete Main

Скриншоты


[Profile]  [PM] 
Display posts:    
Reply to topic

Current time is: 20-Jul 01:47

All times are UTC + 2



You cannot post new topics in this forum
You cannot reply to topics in this forum
You cannot edit your posts in this forum
You cannot delete your posts in this forum
You cannot vote in polls in this forum
You cannot attach files in this forum
You cannot download files in this forum