Толстяк на пляже / Phat Beach (Даг Эллин / Doug Ellin) [1996, США, Комедия, WEB-DL 1080p] AVO (Санаев) + Sub Eng + Original Eng

Reply to topic
 
Author
Message

Faust ®

Gender: Unknown

Longevity: 12 years

Posts: 23187

Reputation: 0 [+] [-]

Faust · Post 18-Jun-2023 07:10

[Quote] 

Толстяк на пляже / Phat Beach
Страна: США
Жанр: Комедия
Год выпуска: 1996
Продолжительность: 01:28:36
Перевод: Авторский (одноголосый закадровый) Павел Санаев
Субтитры: английские
Оригинальная аудиодорожка: английский
Режиссер: Даг Эллин / Doug Ellin
В ролях: Жермен Хагги Хопкинс, Клаудия Келим, Кэндис Меридет, Альма Коллинз, Эрик Фликс, Брайан Хукс, Лоуренс ЛеДжон, Panthere, Кейт Энн Хейни, Николь Амарал
Описание: Толстого и безнадежно влюбленного Бенни ждет унылое лето торговца бургерами. Но его приятель Даррел предлагает более соблазнительный план. Без спроса отца, позаимствовав шикарный «Мерседес» с открытым верхом, Бенни и Даррел отправляются в тур по пляжам Лос-Анджелеса, где много солнца, музыки, удовольствий и, конечно, возможностей для романтических встреч.
Доп. информация: Русская дорога предоставлена fox-1917
Сэмпл: Яндекс.Диск
Тип релиза: WEB-DL 1080p [RARBG]
Контейнер: MKV
Видео: 1920x1080, 23.976 fps, 2 500 Kbps avg, 0.050 bit/pixel
Аудио:
Аудио 1: AC3, 48 kHz, 16-bit, 2 channels, 192 Kbps, Русский [AVO] Павел Санаев
Аудио 2: AAC-LC, 48 kHz, 16-bit, 2 channels, 224 Kbps, Английский
Формат субтитров: softsub (SRT)

MediaInfo

General
Unique ID                   : 258847753448668571743237583715675769813 (0xC2BC4391995CC04137B665C62F618BD5)
Complete name               : D:\Phat.Beach.1996.WEBRip.1080p.mkv
Format                      : Matroska
Format version              : Version 4
File size                   : 1.81 GiB
Duration                    : 1 h 28 min
Overall bit rate            : 2 917 kb/s
Movie name                  : Толстяк на пляже
Encoded date                : UTC 2023-06-12 17:43:37
Writing application         : mkvmerge v64.0.0 ('Willows') 64-bit
Writing library             : libebml v1.4.2 + libmatroska v1.6.4
Video
ID                          : 1
Format                      : AVC
Format/Info                 : Advanced Video Codec
Format profile              : High@L4.1
Format settings             : CABAC / 4 Ref Frames
Format settings, CABAC      : Yes
Format settings, Reference  : 4 frames
Codec ID                    : V_MPEG4/ISO/AVC
Duration                    : 1 h 28 min
Bit rate                    : 2 500 kb/s
Width                       : 1 920 pixels
Height                      : 1 080 pixels
Display aspect ratio        : 16:9
Frame rate mode             : Constant
Frame rate                  : 23.976 (23976/1000) FPS
Color space                 : YUV
Chroma subsampling          : 4:2:0
Bit depth                   : 8 bits
Scan type                   : Progressive
Bits/(Pixel*Frame)          : 0.050
Stream size                 : 1.55 GiB (86%)
Title                       : (x264: 1920x1080 23.976fps ~2500Kbps)
Writing library             : x264 core 152 r2851M ba24899
Encoding settings           : cabac=1 / ref=4 / deblock=1:-1:-1 / analyse=0x3:0x113 / me=umh / subme=9 / psy=1 / psy_rd=1.00:0.15 / mixed_ref=1 / me_range=24 / chroma_me=1 / trellis=2 / 8x8dct=1 / cqm=0 / deadzone=21,11 / fast_pskip=1 / chroma_qp_offset=-3 / threads=16 / lookahead_threads=4 / sliced_threads=0 / nr=0 / decimate=1 / interlaced=0 / bluray_compat=0 / constrained_intra=0 / bframes=3 / b_pyramid=2 / b_adapt=2 / b_bias=0 / direct=3 / weightb=1 / open_gop=0 / weightp=2 / keyint=250 / keyint_min=25 / scenecut=40 / intra_refresh=0 / rc_lookahead=50 / rc=2pass / mbtree=1 / bitrate=2500 / ratetol=1.0 / qcomp=0.60 / qpmin=0 / qpmax=69 / qpstep=4 / cplxblur=20.0 / qblur=0.5 / vbv_maxrate=31250 / vbv_bufsize=31250 / nal_hrd=none / filler=0 / ip_ratio=1.40 / aq=3:1.00
Language                    : English
Default                     : Yes
Forced                      : No
Audio #1
ID                          : 2
Format                      : AC-3
Format/Info                 : Audio Coding 3
Commercial name             : Dolby Digital
Codec ID                    : A_AC3
Duration                    : 1 h 28 min
Bit rate mode               : Constant
Bit rate                    : 192 kb/s
Channel(s)                  : 2 channels
Channel layout              : L R
Sampling rate               : 48.0 kHz
Frame rate                  : 31.250 FPS (1536 SPF)
Compression mode            : Lossy
Stream size                 : 122 MiB (7%)
Title                       : Russian AC3 2.0 48 KHz 192Kbps [AVO] Павел Санаев
Language                    : Russian
Service kind                : Complete Main
Default                     : Yes
Forced                      : No
Audio #2
ID                          : 3
Format                      : AAC LC
Format/Info                 : Advanced Audio Codec Low Complexity
Codec ID                    : A_AAC-2
Duration                    : 1 h 28 min
Bit rate                    : 224 kb/s
Channel(s)                  : 2 channels
Channel layout              : L R
Sampling rate               : 48.0 kHz
Frame rate                  : 46.875 FPS (1024 SPF)
Compression mode            : Lossy
Stream size                 : 142 MiB (8%)
Title                       : English AAC-LC 2.0 48 KHz 224Kbps
Language                    : English
Default                     : No
Forced                      : No
Text
ID                          : 4
Format                      : UTF-8
Codec ID                    : S_TEXT/UTF8
Codec ID/Info               : UTF-8 Plain Text
Duration                    : 1 h 28 min
Bit rate                    : 103 b/s
Count of elements           : 1695
Stream size                 : 66.8 KiB (0%)
Title                       : English (SRT)
Language                    : English
Default                     : No
Forced                      : No

Скриншоты



[Profile]  [PM] 
Display posts:    
Reply to topic

Current time is: 20-Jul 01:46

All times are UTC + 2



You cannot post new topics in this forum
You cannot reply to topics in this forum
You cannot edit your posts in this forum
You cannot delete your posts in this forum
You cannot vote in polls in this forum
You cannot attach files in this forum
You cannot download files in this forum