На следующее утро / The morning after (Сидни Люмет / Sidney Lumet) [1986, США, драма, детектив, триллер, BDRemux 1080p] [USA Transfer] [Shout Factory] DVO + VO (Немец) + Sub Eng + Original Eng

Reply to topic
 
Author
Message

Faust ®

Gender: Unknown

Longevity: 12 years

Posts: 23187

Reputation: 0 [+] [-]

Faust · Post 18-Jun-2023 15:20

[Quote] 

На следующее утро
The morning after

Страна: США
Студия: American Filmworks, Lorimar Productions
Жанр: драма, детектив, триллер
Год выпуска: 1986
Продолжительность: 01:42:44
Перевод 1: Профессиональный (двухголосый закадровый)
Перевод 2: Одноголосый закадровый Немец
Субтитры: английские Full, SDH
Оригинальная аудиодорожка: английский
Режиссер: Сидни Люмет / Sidney Lumet
В ролях: Джейн Фонда, Джефф Бриджес, Рауль Хулиа, Дайан Салинджер, Ричард Форонджи, Джеффри Скотт, Джеймс «Джипси» Хааке, Кэтлин Уилхойт, Дон Худ, Фран Беннетт и др.
Описание: У актрисы Алекс Шернберген проблемы с ролями и с алкоголем. Проблемы с алкоголем настолько сильные, что наутро Алекс частенько не помнит подробности вчерашнего вечера. Однажды после вечеринки она просыпается в постели с трупом, и, естественно, не может ничего вспомнить. Неужели она убила человека? А если нет, кто поверит потерявшей работу пьянице? Алекс пытается бежать, потом пытается замести следы...
А потом встречает бывшего полицейского Тернера, который верит ей и обещает помочь. Версия Тернера состоит в том, что Алекс кто-то подставил. Бывшая актриса и бывший полицейский начинают совместное расследование...
-
Сэмпл IMDB Кинопоиск
-
Доп. информация:
За двухголоску спасибо DVD TIME
Одноголосый перевод с раздачи karlll
Перевод наложен на немецкий дубляж
Тип релиза: BDRemux 1080p
Контейнер: MKV
Видео: AVC / 1920x1080 / 16:9 / 24.0 fps / 34000 Kbps / High@L4.1
Аудио 1 Rus: AC3 / 48.0 KHz / 2.0 / 192 kbps / DVO
Аудио 2 Rus: AC3 / 48.0 KHz / 2.0 / 224 kbps / VO / Немец
Аудио 3 Eng: DTS-HD MA / 48.0 KHz / 2.0 / 1639 kbps / 24 bit (DTS Core 48.0 KHz / 2.0 / 1509 kbps / 24 bit)
Аудио 4 Eng: DTS-HD MA / 48.0 KHz / 2.0 / 1579 kbps / 24 bit (DTS Core 48.0 KHz / 2.0 / 1509 kbps / 24 bit) Commentary with Director Sidney Lumet
Формат субтитров: softsub (SRT)

MediaInfo

GeneralUnique ID                                : 219253896942583312447437674648969689795 (0xA4F2C3B9D884775146730C582CA43AC3)Complete name                            : F:\porvaliparus\The.Morning.After.1986.BDRemux.1080p.mkvFormat                                   : MatroskaFormat version                           : Version 4 / Version 2File size                                : 26.5 GiBDuration                                 : 1 h 42 minOverall bit rate                         : 36.9 Mb/sMovie name                               : The Morning After (1986)Encoded date                             : UTC 2023-06-17 21:17:10Writing application                      : mkvmerge v77.0 ('Elemental') 64-bitWriting library                          : libebml v1.4.4 + libmatroska v1.7.1Cover                                    : YesAttachments                              : Cover.jpg
VideoID : 1Format : AVCFormat/Info : Advanced Video CodecFormat profile : High@L4.1Format settings, CABAC : YesFormat settings, ReFrames : 4 framesCodec ID : V_MPEG4/ISO/AVCDuration : 1 h 42 minBit rate mode : ConstantBit rate : 34.0 Mb/sWidth : 1 920 pixelsHeight : 1 080 pixelsDisplay aspect ratio : 16:9Frame rate mode : ConstantFrame rate : 24.000 FPSColor space : YUVChroma subsampling : 4:2:0Bit depth : 8 bitsScan type : ProgressiveBits/(Pixel*Frame) : 0.683Stream size : 23.8 GiB (90%)Title : The.Morning.After.1986.BDRemux.1080p-porvaliparusDefault : YesForced : No
Audio #1ID : 2Format : AC-3Format/Info : Audio Coding 3Format settings, Endianness : BigCodec ID : A_AC3Duration : 1 h 42 minBit rate mode : ConstantBit rate : 192 kb/sChannel(s) : 2 channelsChannel positions : Front: L RSampling rate : 48.0 kHzFrame rate : 31.250 FPS (1536 spf)Bit depth : 16 bitsCompression mode : LossyStream size : 141 MiB (1%)Title : DVOLanguage : RussianService kind : Complete MainDefault : YesForced : No
Audio #2ID : 3Format : AC-3Format/Info : Audio Coding 3Format settings, Endianness : BigCodec ID : A_AC3Duration : 1 h 42 minBit rate mode : ConstantBit rate : 224 kb/sChannel(s) : 2 channelsChannel positions : Front: L RSampling rate : 48.0 kHzFrame rate : 31.250 FPS (1536 spf)Bit depth : 16 bitsCompression mode : LossyStream size : 165 MiB (1%)Title : VOLanguage : RussianService kind : Complete MainDefault : NoForced : No
Audio #3ID : 4Format : DTSFormat/Info : Digital Theater SystemsFormat profile : MA / CoreMode : 16Format settings, Endianness : BigCodec ID : A_DTSDuration : 1 h 42 minBit rate mode : Variable / ConstantBit rate : 1 639 kb/s / 1 509 kb/sChannel(s) : 2 channelsChannel positions : Front: L RSampling rate : 48.0 kHzFrame rate : 93.750 FPS (512 spf)Bit depth : 24 bitsCompression mode : Lossless / LossyStream size : 1.18 GiB (4%)Language : EnglishDefault : NoForced : No
Audio #4ID : 5Format : DTSFormat/Info : Digital Theater SystemsFormat profile : MA / CoreMode : 16Format settings, Endianness : BigCodec ID : A_DTSDuration : 1 h 42 minBit rate mode : Variable / ConstantBit rate : 1 579 kb/s / 1 509 kb/sChannel(s) : 2 channelsChannel positions : Front: L RSampling rate : 48.0 kHzFrame rate : 93.750 FPS (512 spf)Bit depth : 24 bitsCompression mode : Lossless / LossyStream size : 1.13 GiB (4%)Title : Commentary with Director Sidney LumetLanguage : EnglishDefault : NoForced : No
Text #1ID : 6Format : UTF-8Codec ID : S_TEXT/UTF8Codec ID/Info : UTF-8 Plain TextDuration : 1 h 40 minBit rate : 48 b/sCount of elements : 1320Stream size : 35.4 KiB (0%)Title : FullLanguage : EnglishDefault : NoForced : No
Text #2ID : 7Format : UTF-8Codec ID : S_TEXT/UTF8Codec ID/Info : UTF-8 Plain TextDuration : 1 h 41 minBit rate : 58 b/sCount of elements : 1588Stream size : 43.3 KiB (0%)Title : SDHLanguage : EnglishDefault : NoForced : No
Text #3ID : 8Format : PGSCodec ID : S_HDMV/PGSCodec ID/Info : Picture based subtitle format used on BDs/HD-DVDsDuration : 1 h 41 minBit rate : 35.1 kb/sCount of elements : 2300Stream size : 25.6 MiB (0%)Title : SDHLanguage : EnglishDefault : NoForced : No
Menu00:00:00.000 : en:Глава 0100:11:26.542 : en:Глава 0200:16:45.333 : en:Глава 0300:22:36.042 : en:Глава 0400:31:29.500 : en:Глава 0500:43:57.292 : en:Глава 0600:50:03.667 : en:Глава 0700:56:47.958 : en:Глава 0801:07:53.333 : en:Глава 0901:17:10.750 : en:Глава 1001:24:52.583 : en:Глава 1101:32:29.000 : en:Глава 12

Скриншоты


Информация об исходнике

Disc Title: The Morning After
Disc Label: The.Morning.After.1986.COMPLETE.BLURAY-OPTiCAL
Disc Size: 37,800,829,521 bytes
Protection: AACS
Playlist: 00002.MPLS
Size: 30,391,044,096 bytes
Length: 1:42:44.333
Total Bitrate: 39.44 Mbps
Video: MPEG-4 AVC Video / 34000 kbps / 1080p / 24 fps / 16:9 / High Profile 4.1
Audio: English / DTS-HD Master Audio / 2.0 / 48 kHz / 1639 kbps / 24-bit (DTS Core: 2.0 / 48 kHz / 1509 kbps / 24-bit)
Audio: English / DTS-HD Master Audio / 2.0 / 48 kHz / 1579 kbps / 24-bit (DTS Core: 2.0 / 48 kHz / 1509 kbps / 24-bit)
Subtitle: English / 34.774 kbps
[Profile]  [PM] 
Display posts:    
Reply to topic

Current time is: 20-Jul 01:45

All times are UTC + 2



You cannot post new topics in this forum
You cannot reply to topics in this forum
You cannot edit your posts in this forum
You cannot delete your posts in this forum
You cannot vote in polls in this forum
You cannot attach files in this forum
You cannot download files in this forum