Создатели тени / Толстяк и Малыш / Fat Man and Little Boy / Shadow Makers (Рональд Жофе/ Roland Joffé) [1989, США, драма, военный, биография, история, BDRemux 1080p] 2x MVO (Paramount Channel, Премьер Видео Фильм) + Sub Eng + Original Eng

Reply to topic
 
Author
Message

Faust ®

Gender: Unknown

Longevity: 12 years

Posts: 23187

Reputation: 0 [+] [-]

Faust · Post 18-Jun-2023 15:20

[Quote] 

Создатели тени / Толстяк и Малыш / Fat Man and Little Boy / Shadow Makers
Via Vision Entertainment
Страна: США
Жанр: драма, военный, биография, история
Год выпуска: 1989
Продолжительность: 2:06:31
Перевод 1: Профессиональный (многоголосый закадровый) Paramount Channel
Перевод 2: Профессиональный (многоголосый закадровый) Премьер Видео Фильм
Субтитры: английские
Оригинальная аудиодорожка: английская
Режиссер: Рональд Жофе / Roland Joffé
В ролях: Пол Ньюман, Дуайт Шульц, Бонни Беделиа, Джон Кьюсак, Лора Дерн, Рон Фрэзиер, Джон К. МакГинли, Наташа Ричардсон, Рон Вотер, Майкл Брокмэн
Описание:
Это история создания атомной бомбы в Америке. Фильм знаменитого режиссёра Роланда Джоффе открывает тайну создания самого страшного оружия на Земле.
Драма о людях причастных к созданию атомной бомбы и отчетливо осознающих всю ответственность за это перед миром. Главные герои - Роберт Оппенгеймер и генерал Грувз.
Пол Ньюман играет сурового генерала Лесли Грувза, который руководит совершенно секретным проектом "Манхэттен", на который было потрачено 2 млрд.долл.
В результате чего на Японию были сброшены две бомбы - "Толстяк" (плутониевая) и "Малыш" (урановая)
Сэмпл
Тип релиза: BDRemux 1080p
Контейнер: MKV
Видео: AVC / 1920x1080 (16:9) / 23.976 fps / 33011 kbps / High@L4.1
Аудио 1: Russian: AC3 / 48 kHz / 2.0 / 192 kbps / CBR |Paramount Channel
Аудио 2: Russian: AC3 / 48 kHz / 2.0 / 192 kbps / CBR |Премьер Видео Фильм
Аудио 3: English: DTS-HD Master Audio / 48 kHz / 5.1 / 3946 kbps (DTS Core: 48 kHz / 2.0 / 1509 kbps / 24 bit)
Аудио 4: English: FLAC / 48 kHz / 2.0 / 1249 kbps / 24 bit / VBR
Формат субтитров: SRT/PGS

MediaInfo

GeneralUnique ID                                : 145779812166412322617766646681168585247 (0x6DAC2BA96AAE42ED44054F673C8D221F)Complete name                            : Fat Man and Little Boy.mkvFormat                                   : MatroskaFormat version                           : Version 4File size                                : 34.1 GiBDuration                                 : 2 h 6 minOverall bit rate mode                    : VariableOverall bit rate                         : 38.6 Mb/sEncoded date                             : UTC 2023-06-17 09:49:45Writing application                      : mkvmerge v58.0.0 ('Supper's Ready') 64-bitWriting library                          : libebml v1.4.2 + libmatroska v1.6.4
VideoID : 1Format : AVCFormat/Info : Advanced Video CodecFormat profile : High@L4.1Format settings : CABAC / 4 Ref FramesFormat settings, CABAC : YesFormat settings, Reference frames : 4 framesCodec ID : V_MPEG4/ISO/AVCDuration : 2 h 6 minBit rate mode : VariableBit rate : 33.0 Mb/sMaximum bit rate : 35.0 Mb/sWidth : 1 920 pixelsHeight : 1 080 pixelsDisplay aspect ratio : 16:9Frame rate mode : ConstantFrame rate : 23.976 (24000/1001) FPSColor space : YUVChroma subsampling : 4:2:0Bit depth : 8 bitsScan type : ProgressiveBits/(Pixel*Frame) : 0.664Stream size : 29.2 GiB (85%)Default : NoForced : NoColor range : LimitedColor primaries : BT.709Transfer characteristics : BT.709Matrix coefficients : BT.709
Audio #1ID : 2Format : AC-3Format/Info : Audio Coding 3Commercial name : Dolby DigitalCodec ID : A_AC3Duration : 2 h 6 minBit rate mode : ConstantBit rate : 192 kb/sChannel(s) : 2 channelsChannel layout : L RSampling rate : 48.0 kHzFrame rate : 31.250 FPS (1536 SPF)Compression mode : LossyStream size : 174 MiB (0%)Title : MVO Paramount ChannelLanguage : RussianService kind : Complete MainDefault : YesForced : No
Audio #2ID : 3Format : AC-3Format/Info : Audio Coding 3Commercial name : Dolby DigitalCodec ID : A_AC3Duration : 2 h 6 minBit rate mode : ConstantBit rate : 192 kb/sChannel(s) : 2 channelsChannel layout : L RSampling rate : 48.0 kHzFrame rate : 31.250 FPS (1536 SPF)Compression mode : LossyStream size : 174 MiB (0%)Title : MVO Премьер Видео ФильмLanguage : RussianService kind : Complete MainDefault : NoForced : No
Audio #3ID : 4Format : DTS XLLFormat/Info : Digital Theater SystemsCommercial name : DTS-HD Master AudioCodec ID : A_DTSDuration : 2 h 6 minBit rate mode : VariableBit rate : 3 946 kb/sChannel(s) : 6 channelsChannel layout : C L R Ls Rs LFESampling rate : 48.0 kHzFrame rate : 93.750 FPS (512 SPF)Bit depth : 24 bitsCompression mode : LosslessStream size : 3.49 GiB (10%)Language : EnglishDefault : NoForced : No
Audio #4ID : 5Format : FLACFormat/Info : Free Lossless Audio CodecCodec ID : A_FLACDuration : 2 h 6 minBit rate mode : VariableBit rate : 1 249 kb/sChannel(s) : 2 channelsChannel layout : L RSampling rate : 48.0 kHzFrame rate : 11.719 FPS (4096 SPF)Bit depth : 24 bitsCompression mode : LosslessStream size : 1.10 GiB (3%)Writing library : libFLAC 1.2.1 (UTC 2007-09-17)Language : EnglishDefault : NoForced : No
Text #1ID : 6Format : UTF-8Codec ID : S_TEXT/UTF8Codec ID/Info : UTF-8 Plain TextDuration : 2 h 0 minBit rate : 68 b/sCount of elements : 1692Stream size : 59.9 KiB (0%)Language : EnglishDefault : NoForced : No
Text #2ID : 7Format : PGSMuxing mode : zlibCodec ID : S_HDMV/PGSCodec ID/Info : Picture based subtitle format used on BDs/HD-DVDsDuration : 2 h 0 minBit rate : 32.3 kb/sCount of elements : 3384Stream size : 27.8 MiB (0%)Language : EnglishDefault : NoForced : No
Menu00:00:00.000 : :Chapter 0100:06:03.446 : :Chapter 0200:11:05.539 : :Chapter 0300:18:09.421 : :Chapter 0400:22:28.388 : :Chapter 0500:30:29.577 : :Chapter 0600:34:50.797 : :Chapter 0700:40:03.651 : :Chapter 0800:46:10.684 : :Chapter 0900:55:19.441 : :Chapter 1001:02:14.731 : :Chapter 1101:10:21.842 : :Chapter 1201:16:15.445 : :Chapter 1301:24:29.647 : :Chapter 1401:30:21.207 : :Chapter 1501:35:11.455 : :Chapter 1601:43:16.648 : :Chapter 1701:48:00.140 : :Chapter 1801:55:27.462 : :Chapter 1901:59:53.436 : :Chapter 2002:03:16.847 : :Chapter 21

Скриншоты

Релиз TeamHD. Спасибо alinto.
[Profile]  [PM] 
Display posts:    
Reply to topic

Current time is: 20-Jul 01:44

All times are UTC + 2



You cannot post new topics in this forum
You cannot reply to topics in this forum
You cannot edit your posts in this forum
You cannot delete your posts in this forum
You cannot vote in polls in this forum
You cannot attach files in this forum
You cannot download files in this forum