Советник / Адвокат / The counselor (Ридли Скотт / Ridley Scott) [2013, США, Великобритания, детектив, криминал, боевик, BDRip] [Extended cut / Расширенная версия] AVO (Юрий Живов)

Reply to topic
 
Author
Message

Satyr ®

Gender: Unknown

Longevity: 15 years

Posts: 22031

Reputation: 56 [+] [-]

Satyr · Post 18-Jun-2023 15:20

[Quote] 

Советник / Адвокат / The counselor
Страна: США, Великобритания
Жанр: детектив, криминал, боевик
Год выпуска: 2013
Продолжительность: 02:17:56
Перевод: Авторский (одноголосый закадровый) Юрий Живов
Субтитры: нет
Режиссер: Ридли Скотт / Ridley Scott
В ролях: Майкл Фассбендер, Пенелопа Крус, Кэмерон Диаз, Хавьер Бардем, Брэд Питт, Бруно Ганц, Рози Перес, Сэм Спруэлл
Описание: Знакомый с крупным наркодилером Райнером техасский адвокат решает войти в «дело», чтобы расплатиться с долгами и надолго обеспечить себя и свою невесту Лауру. Однако первая же операция с его участием заканчивается катастрофическим провалом. Наркокартель теряет курьера и три бочки с упаковками кокаина, и мексиканские «авторитеты» решают отомстить всем, кто знал о готовящейся переправке наркотиков через границу. Среди прочих в черный список попадает и незадачливый юрист ...

Сэмпл: https://disk.yandex.ru/i/TS97dUzx0dEtXw
Качество видео: BDRip (Исходник BDRemux 1080p)
Формат видео: AVI
Видео: XviD 73, 720x304, (2,35:1), 23,976 fps, 1734 Кбит/с, 8 бит, 0.33 bit/pixel
Аудио: Русский (АС3, 6 ch (Front: L C R, Side: L R, LFE), 48,0 KHz, 384 Kbps

MediaInfo

ОбщееПолное имя                               : F:\На трекер\Советник  (детектив, триллер 2013 год).aviФормат                                   : AVIФормат/Информация                        : Audio Video InterleaveПрофиль формата                          : OpenDMLРазмер файла                             : 2,05 ГбайтПродолжительность                        : 2 ч. 17 м.Общий поток                              : 2130 Кбит/секПрограмма кодирования                    : VirtualDubMod 1.5.10.2 (build 2540/release)Библиотека кодирования                   : VirtualDubMod build 2540/release
ВидеоИдентификатор : 0Формат : MPEG-4 VisualПрофиль формата : Advanced Simple@L5Параметр BVOP формата : 2Параметр QPel формата : НетПараметр GMC формата : Без точки переходаПараметр матрицы формата : ВыборочнаяИдентификатор кодека : XVIDИдентификатор кодека/Подсказка : XviDПродолжительность : 2 ч. 17 м.Битрейт : 1734 Кбит/секШирина : 720 пикселейВысота : 304 пикселяСоотношение сторон : 2,35:1Частота кадров : 23,976 (23976/1000) кадра/секЦветовое пространство : YUVСубдискретизация насыщенности : 4:2:0Битовая глубина : 8 битТип развёртки : ПрогрессивнаяМетод сжатия : С потерямиБит/(Пиксели*Кадры) : 0.330Размер потока : 1,67 Гбайт (81%)Библиотека кодирования : XviD 73
АудиоИдентификатор : 1Формат : AC-3Формат/Информация : Audio Coding 3Расширение режима : CM (complete main)Параметр Endianness формата : BigИдентификатор кодека : 2000Продолжительность : 2 ч. 17 м.Вид битрейта : ПостоянныйБитрейт : 384 Кбит/секКаналы : 6 каналовРасположение каналов : Front: L C R, Side: L R, LFEЧастота : 48,0 КГцЧастота кадров : 31,250 кадров/сек (1536 spf)Метод сжатия : С потерямиРазмер потока : 379 Мбайт (18%)Выравнивание : Разделение по промежуткамПродолжительность промежутка : 42 мс. (1,00 видеокадр)Время предзагрузки промежутка : 500 мс.

Скриншот c названием фильма

Скриншоты

[Profile]  [PM] 
Display posts:    
Reply to topic

Current time is: 20-Jul 01:43

All times are UTC + 2



You cannot post new topics in this forum
You cannot reply to topics in this forum
You cannot edit your posts in this forum
You cannot delete your posts in this forum
You cannot vote in polls in this forum
You cannot attach files in this forum
You cannot download files in this forum