Чернокнижник 2: Армагеддон / Колдун 2: Армагеддон / Warlock: The Armageddon (Энтони Хикокс / Anthony Hickox) [1993, США, ужасы, мистика, триллер, BDRip] AVO (Юрий Живов) + AVO (Андрей Гаврилов) + AVO (Василий Горчаков) + AVO (Андрей Дольский)

Reply to topic
 
Author
Message

Satyr ®

Gender: Unknown

Longevity: 15 years

Posts: 22031

Reputation: 56 [+] [-]

Satyr · Post 18-Jun-2023 15:20

[Quote] 

Чернокнижник 2: Армагеддон / Колдун 2: Армагеддон / Warlock: The Armageddon
Страна: США
Жанр: ужасы, мистика, триллер
Год выпуска: 1993
Продолжительность: 01:38:08
Перевод: Авторский (одноголосый закадровый) Юрий Живов
Перевод 2: Авторский (одноголосый закадровый) Андрей Гаврилов
Перевод 3: Авторский (одноголосый закадровый) Василий Горчаков
Перевод 4: Авторский (одноголосый закадровый) Андрей Дольский
Субтитры: нет
Режиссер: Энтони Хикокс / Anthony Hickox
В ролях: Джулиан Сэндс, Крис Янг, Пола Маршалл, Джоанна Пакула, Стив Кэхэн, Р.Г. Армстронг, Чарльз Хэллахан, Брюс Гловер
Описание: У Сатаны есть сын и его зовут Чернокнижник. Он вернулся из ада в наш мир, чтобы сделать всё, чтобы мир оказался во власти Сатаны. Для этого ему надо найти магические камни. Камней всего шесть, а на поиски выделено всего семь дней, не минутой больше. Чернокнижник не умолим в их поисках, но нашлись друиды, которые ему решили помешать. Они узнали о том, что Чернокнижник вернулся и что он ищет, и что его магия и власть растет с каждым найденным им камнем и встали на защиту мира. Это двое влюбленных, которые до недавних пор не знали, что они последние из друидов-священников и что их предназначение спасение мира от сил Сатаны ...

Сэмпл: https://disk.yandex.ru/i/OnbguQyFTVBYEg
Качество видео: BDRip (Исходник Warlock.The.Armageddon.1993.BDRemux.mkv)
Формат видео: AVI
Видео: XviD 73, 704x400, (16:9), 23,976 fps, 1818 Кбит/с, 8 бит, 0.27 bit/pixel
Аудио: Русский (АС3, 2 ch (Front: L R), 48,0 KHz, 192 Kbps) Юрий Живов
Аудио 2: Русский (АС3, 2 ch (Front: L R), 48,0 KHz, 224 Kbps) Андрей Гаврилов (отдельно)
Аудио 3: Русский (АС3, 2 ch (Front: L R), 48,0 KHz, 192 Kbps) Василий Горчаков (отдельно)
Аудио 4: Русский (АС3, 2 ch (Front: L R), 48,0 KHz, 192 Kbps) Андрей Дольский (отдельно)

MediaInfo

Общее
Полное имя : F:\Видеофильмы\В и д е о\Чернокнижник 2 Армагеддон (ужасы, мистика 1993 год).avi
Формат : AVI
Формат/Информация : Audio Video Interleave
Размер файла : 1,38 Гбайт
Продолжительность : 1 ч. 38 м.
Общий поток : 2019 Кбит/сек
Программа кодирования : VirtualDubMod 1.5.10.3 | www.virtualdub-fr.org || (build 2550/release)
Библиотека кодирования : VirtualDubMod build 2550/release
Видео
Идентификатор : 0
Формат : MPEG-4 Visual
Профиль формата : Advanced Simple@L5
Параметр BVOP формата : 2
Параметр QPel формата : Нет
Параметр GMC формата : Без точки перехода
Параметр матрицы формата : Выборочная
Идентификатор кодека : XVID
Идентификатор кодека/Подсказка : XviD
Продолжительность : 1 ч. 38 м.
Битрейт : 1818 Кбит/сек
Ширина : 704 пикселя
Высота : 400 пикселей
Соотношение сторон : 16:9
Частота кадров : 23,976 (23976/1000) кадра/сек
Цветовое пространство : YUV
Субдискретизация насыщенности : 4:2:0
Битовая глубина : 8 бит
Тип развёртки : Прогрессивная
Метод сжатия : С потерями
Бит/(Пиксели*Кадры) : 0.269
Размер потока : 1,25 Гбайт (90%)
Библиотека кодирования : XviD 73
Аудио
Идентификатор : 1
Формат : AC-3
Формат/Информация : Audio Coding 3
Расширение режима : CM (complete main)
Параметр Endianness формата : Big
Идентификатор кодека : 2000
Продолжительность : 1 ч. 38 м.
Вид битрейта : Постоянный
Битрейт : 192 Кбит/сек
Каналы : 2 канала
Расположение каналов : Front: L R
Частота : 48,0 КГц
Частота кадров : 31,250 кадров/сек (1536 spf)
Метод сжатия : С потерями
Размер потока : 135 Мбайт (10%)
Выравнивание : Разделение по промежуткам
Продолжительность промежутка : 42 мс. (1,00 видеокадр)
Время предзагрузки промежутка : 500 мс.

Скриншот c названием фильма

Скриншоты

[Profile]  [PM] 
Display posts:    
Reply to topic

Current time is: 20-Jul 01:41

All times are UTC + 2



You cannot post new topics in this forum
You cannot reply to topics in this forum
You cannot edit your posts in this forum
You cannot delete your posts in this forum
You cannot vote in polls in this forum
You cannot attach files in this forum
You cannot download files in this forum