Чернокнижник / Колдун / Уорлок - Сын сатаны / Warlock (Стив Майнер / Steve Miner) [1989, США, ужасы, боевик, триллер, BDRip] AVO (Юрий Живов) + AVO (Андрей Гаврилов) + AVO (Сергей Кузнецов)

Reply to topic
 
Author
Message

Satyr ®

Gender: Unknown

Longevity: 15 years

Posts: 22045

Reputation: 56 [+] [-]

Satyr · Post 18-Jun-2023 19:25

[Quote] 

Чернокнижник / Колдун / Уорлок - Сын сатаны / Warlock
Страна: США
Жанр: ужасы, боевик, триллер
Год выпуска: 1989
Продолжительность: 01:43:07
Перевод: Авторский (одноголосый закадровый) Юрий Живов
Перевод 2: Авторский (одноголосый закадровый) Андрей Гаврилов
Перевод 3: Авторский (одноголосый закадровый) Сергей Кузнецов
Субтитры: нет
Режиссер: Стив Майнер / Steve Miner
В ролях: Джулиан Сэндс, Лори Сингер, Ричард Э. Грант, Мэри Воронов, Кевин О`Брайэн, Аллан Миллер, Анна Томсон, Дэвид Карпентер
Описание: Бостон, 1691 год. До казни самого могущественного колдуна-чернокнижника Нового Света остается лишь несколько часов. Но сам дьявол освобождает своего ученика из заточения и переносит его на триста лет вперед, через пространство и время, в современный Лос-Анджелес. Здесь чернокнижник должен найти и соединить три части Великого Гримуара - сатанинской Библии - и раскрыть тайное имя Господа, после чего Земля окажется во власти дьявола. Но на его пути встает охотник на ведьм Жиль Редферн, предавший чернокнижника суду Господню в средневековой Новой Англии и перенесшийся вслед за ним в современный Лос-Анджелес ...

Сэмпл: https://disk.yandex.ru/i/MgF6tU97nF8PdA
Качество видео: BDRip (Исходник Warlock.1989.BDRemux.mkv)
Формат видео: AVI
Видео: XviD 73, 720x384, (1,85:1), 23,976 fps, 1672 Кбит/с, 8 бит, 0.26 bit/pixel
Аудио: Русский (АС3, 2 ch (Front: L R), 48,0 KHz, 192 Kbps) Юрий Живов
Аудио 2: Русский (АС3, 2 ch (Front: L R), 48,0 KHz, 192 Kbps, mono) Андрей Гаврилов (отдельно)
Аудио 3: Русский (АС3, 2 ch (Front: L R), 48,0 KHz, 192 Kbps, mono) Сергей Кузнецов (отдельно)

MediaInfo

Общее
Полное имя : F:\Видеофильмы\В и д е о\Чернокнижник (ужасы, боевик, триллер 1989 год).avi
Формат : AVI
Формат/Информация : Audio Video Interleave
Размер файла : 1,38 Гбайт
Продолжительность : 1 ч. 46 м.
Общий поток : 1868 Кбит/сек
Программа кодирования : VirtualDubMod 1.5.10.3 | www.virtualdub-fr.org || (build 2550/release)
Библиотека кодирования : VirtualDubMod build 2550/release
Видео
Идентификатор : 0
Формат : MPEG-4 Visual
Профиль формата : Advanced Simple@L5
Параметр BVOP формата : 2
Параметр QPel формата : Нет
Параметр GMC формата : Без точки перехода
Параметр матрицы формата : Выборочная
Идентификатор кодека : XVID
Идентификатор кодека/Подсказка : XviD
Продолжительность : 1 ч. 46 м.
Битрейт : 1672 Кбит/сек
Ширина : 704 пикселя
Высота : 384 пикселя
Соотношение сторон : 1,85:1
Частота кадров : 23,976 (23976/1000) кадра/сек
Цветовое пространство : YUV
Субдискретизация насыщенности : 4:2:0
Битовая глубина : 8 бит
Тип развёртки : Прогрессивная
Метод сжатия : С потерями
Бит/(Пиксели*Кадры) : 0.258
Размер потока : 1,24 Гбайт (89%)
Библиотека кодирования : XviD 73
Аудио
Идентификатор : 1
Формат : AC-3
Формат/Информация : Audio Coding 3
Расширение режима : CM (complete main)
Параметр Endianness формата : Big
Идентификатор кодека : 2000
Продолжительность : 1 ч. 43 м.
Вид битрейта : Постоянный
Битрейт : 192 Кбит/сек
Каналы : 2 канала
Расположение каналов : Front: L R
Частота : 48,0 КГц
Частота кадров : 31,250 кадров/сек (1536 spf)
Метод сжатия : С потерями
Размер потока : 142 Мбайт (10%)
Выравнивание : Разделение по промежуткам
Продолжительность промежутка : 43 мс. (1,03 видеокадр)
Время предзагрузки промежутка : 500 мс.

Скриншот c названием фильма

Скриншоты

[Profile]  [PM] 
Display posts:    
Reply to topic

Current time is: 25-Jul 04:51

All times are UTC + 2



You cannot post new topics in this forum
You cannot reply to topics in this forum
You cannot edit your posts in this forum
You cannot delete your posts in this forum
You cannot vote in polls in this forum
You cannot attach files in this forum
You cannot download files in this forum