Снова в бой / Back in Action (Стив ДиМарко, Пол Зиллер / Steve DiMarco, Paul Ziller) [1994, Канада, боевик, DVDRip-AVC] AVO Сергей Визгунов v2 + Original Eng

Reply to topic
 
Author
Message

Satyr ®

Gender: Unknown

Longevity: 15 years

Posts: 22031

Reputation: 56 [+] [-]

Satyr · Post 18-Jun-2023 19:25

[Quote] 

Снова в бой / Back in Action
«One Cop. One Vigilante. Alone, they're unstoppable. Together, they're invincible!»
Страна: Канада
Жанр: Боевик
Год выпуска: 1994
Продолжительность: 01:28:16
Перевод: Авторский (одноголосый закадровый) Сергей Визгунов другой вариант
Субтитры: нет
Оригинальная аудиодорожка: английский
Режиссер: Стив ДиМарко, Пол Зиллер / Steve DiMarco, Paul Ziller
В ролях: Билли Блэнкс, Родди Пайпер, Бобби Филлипс, Кай Сормекун, Мэтт Бирман, Найджел
Беннетт, Дэймон Д’Оливера, Роб Стефанюк, Сэм Малкин, Бэрри Блейк
Описание: Полицейский Росси и спецназовец, асс рукопашного боя Билли, объединенные жаждой
мести, охотятся на группировку торговцев наркотиками.
Гангстеры из этой банды убили на глазах у Росси его напарника, и он готов на все, чтобы
расквитаться с преступниками, даже если это приведет к потере полицейского значка. А у Билли
пропала сестра, впутавшись в темные дела наркомафии, и чтобы вернуть ее он начинает срывать
все незаконные операции, проводимые бандой.
Дело принимает еще более серьезный оборот, когда подружке Росси телерепортеру Хелен удается
разыскать сестру Билли, чтобы взять у нее интервью, и они вдвоем оказываются заложниками у
гангстеров.
Доп. информация: Дорожку синхронизировал - ale_x2008
За дорожку благодарим - Олег Шаров

Релиз
Сэмпл: https://www.sendspace.com/file/n2c7qn
Качество видео: DVDRip-AVC
Формат видео: MKV
Видео: MPEG4 Video (H264) 704x544 25fps Bit rate 1 941 kb/s
Аудио: AC3 Dolby Digital, 48000Hz, 2/0 (L,R) ch (mono), 192 kbps avg
Аудио 2: AC3 Dolby Digital, 48000Hz, 2/0 (L,R) ch, 192 kbps avg

MediaInfo

Снова в бой (Back in Action) DVDRemux Vizgunov #2 [by ale_x2008].mkvFormat                      : MatroskaFormat version              : Version 4File size                   : 1.43 GiBDuration                    : 1 h 28 minOverall bit rate            : 2 327 kb/sFrame rate                  : 25.000 FPSEncoded date                : 2023-06-18 11:06:15 UTCWriting application         : mkvmerge v71.0.0 ('Altitude') 64-bitWriting library             : libebml v1.4.4 + libmatroska v1.7.1
VideoID : 1Format : AVCFormat/Info : Advanced Video CodecFormat profile : High@L4.1Format settings : CABAC / 16 Ref FramesFormat settings, CABAC : YesFormat settings, Reference : 16 framesCodec ID : V_MPEG4/ISO/AVCDuration : 1 h 28 minBit rate : 1 941 kb/sWidth : 704 pixelsHeight : 544 pixelsDisplay aspect ratio : 1.294Frame rate mode : ConstantFrame rate : 25.000 FPSColor space : YUVChroma subsampling : 4:2:0Bit depth : 8 bitsScan type : ProgressiveBits/(Pixel*Frame) : 0.203Stream size : 1.20 GiB (83%)Writing library : x264 core 148 r2638 7599210Encoding settings : cabac=1 / ref=16 / deblock=1:-3:-3 / analyse=0x3:0x133 / me=umh / subme=9 / psy=1 / psy_rd=1.00:0.00 / mixed_ref=1 / me_range=32 / chroma_me=1 / trellis=2 / 8x8dct=1 / cqm=0 / deadzone=21,11 / fast_pskip=1 / chroma_qp_offset=-2 / threads=17 / lookahead_threads=4 / sliced_threads=0 / nr=0 / decimate=1 / interlaced=0 / bluray_compat=0 / constrained_intra=0 / bframes=10 / b_pyramid=0 / b_adapt=2 / b_bias=0 / direct=3 / weightb=1 / open_gop=0 / weightp=2 / keyint=250 / keyint_min=25 / scenecut=40 / intra_refresh=0 / rc=crf / mbtree=0 / crf=19.0 / qcomp=0.60 / qpmin=0 / qpmax=69 / qpstep=4 / ip_ratio=1.40 / pb_ratio=1.30 / aq=1:1.00Default : YesForced : No
Audio #1ID : 2Format : AC-3Format/Info : Audio Coding 3Commercial name : Dolby DigitalCodec ID : A_AC3Duration : 1 h 28 minBit rate mode : ConstantBit rate : 192 kb/sChannel(s) : 2 channelsChannel layout : L RSampling rate : 48.0 kHzFrame rate : 31.250 FPS (1536 SPF)Compression mode : LossyStream size : 121 MiB (8%)Language : RussianService kind : Complete MainDefault : YesForced : No
Audio #2ID : 3Format : AC-3Format/Info : Audio Coding 3Commercial name : Dolby DigitalCodec ID : A_AC3Duration : 1 h 28 minBit rate mode : ConstantBit rate : 192 kb/sChannel(s) : 2 channelsChannel layout : L RSampling rate : 48.0 kHzFrame rate : 31.250 FPS (1536 SPF)Compression mode : LossyStream size : 121 MiB (8%)Language : EnglishService kind : Complete MainDefault : NoForced : No

Скриншоты


[Profile]  [PM] 
Display posts:    
Reply to topic

Current time is: 20-Jul 02:18

All times are UTC + 2



You cannot post new topics in this forum
You cannot reply to topics in this forum
You cannot edit your posts in this forum
You cannot delete your posts in this forum
You cannot vote in polls in this forum
You cannot attach files in this forum
You cannot download files in this forum