Тотальная слежка / La totale! (Клод Зиди / Claude Zidi) [1991, Франция, комедия, приключения, BDRip-AVC] AVO (Сергей Дьяков)

Reply to topic
 
Author
Message

Satyr ®

Gender: Unknown

Longevity: 15 years

Posts: 22031

Reputation: 56 [+] [-]

Satyr · Post 18-Jun-2023 19:25

[Quote] 

Тотальная слежка / La totale!
Страна: Франция
Жанр: комедия, приключения
Год выпуска: 1991
Продолжительность: 01:43:28
Перевод: Авторский (одноголосый закадровый) Сергей Дьяков
Субтитры: нет
Режиссер: Клод Зиди / Claude Zidi
В ролях: Тьерри Лермитт, Миу-Миу, Эдди Митчелл, Мишель Бужена, Жан Бенгиги, Анник Алан, Клаудине Вильде, Франсуа Хаджи-Лазаро, Ян Эпстейн, Сагамор Стевенен
Описание: Элен уверена, что ее муж Франсуа - скромный госслужащий. За 18 лет совместной жизни она так и не догадалась, что на самом деле он выполняет сверхсложные задания правительства. Сам Франсуа будучи спецагентом в свою очередь не замечает, что же происходит в его семье. Сын уже месяц не ходит в школу, а у жены Элен появился любовник. Элен, в поисках приключений, связывается с проходимцем Симоном. Франсуа используя служебное положение в личных целях начинает следить за своей семьёй. Между тем Франсуа и его "контора" выходят на крупного международного террориста Саркиса…
Доп. информация: Дорожку синхронизировал ale_x2008
За оцифрованную с VHS дорожку благодарим - Fikaloid

Релиз
Сэмпл: https://www.sendspace.com/file/iswm44
Качество видео: BDRip-AVC [BDRemux 1080p La totale 18.74 GB]
Формат видео: MKV
Видео: MPEG4 Video (H264) 944x568 24fps
Аудио: 48 kHz, AC3 Dolby Digital, 2/0 (L,R) ch (mono), ~192 kbps

MediaInfo

Тотальная слежка (La totale !) BDRip-AVC [by ale_x2008].mkvFormat                      : MatroskaFormat version              : Version 4File size                   : 2.05 GiBDuration                    : 1 h 43 minOverall bit rate            : 2 842 kb/sFrame rate                  : 24.000 FPSEncoded date                : 2023-06-16 14:58:33 UTCWriting application         : mkvmerge v71.0.0 ('Altitude') 64-bitWriting library             : libebml v1.4.4 + libmatroska v1.7.1
VideoID : 1Format : AVCFormat/Info : Advanced Video CodecFormat profile : High@L4.1Format settings : CABAC / 16 Ref FramesFormat settings, CABAC : YesFormat settings, Reference : 16 framesCodec ID : V_MPEG4/ISO/AVCDuration : 1 h 43 minBit rate : 2 648 kb/sWidth : 944 pixelsHeight : 568 pixelsDisplay aspect ratio : 5:3Frame rate mode : ConstantFrame rate : 24.000 FPSColor space : YUVChroma subsampling : 4:2:0Bit depth : 8 bitsScan type : ProgressiveBits/(Pixel*Frame) : 0.206Stream size : 1.91 GiB (93%)Writing library : x264 core 148 r2638 7599210Encoding settings : cabac=1 / ref=16 / deblock=1:-3:-3 / analyse=0x3:0x133 / me=umh / subme=9 / psy=1 / psy_rd=1.00:0.00 / mixed_ref=1 / me_range=32 / chroma_me=1 / trellis=2 / 8x8dct=1 / cqm=0 / deadzone=21,11 / fast_pskip=1 / chroma_qp_offset=-2 / threads=18 / lookahead_threads=4 / sliced_threads=0 / nr=0 / decimate=1 / interlaced=0 / bluray_compat=0 / constrained_intra=0 / bframes=10 / b_pyramid=0 / b_adapt=2 / b_bias=0 / direct=3 / weightb=1 / open_gop=0 / weightp=2 / keyint=250 / keyint_min=23 / scenecut=40 / intra_refresh=0 / rc=crf / mbtree=0 / crf=21.0 / qcomp=0.60 / qpmin=0 / qpmax=69 / qpstep=4 / ip_ratio=1.40 / pb_ratio=1.30 / aq=1:1.00Default : YesForced : No
AudioID : 2Format : AC-3Format/Info : Audio Coding 3Commercial name : Dolby DigitalCodec ID : A_AC3Duration : 1 h 43 minBit rate mode : ConstantBit rate : 192 kb/sChannel(s) : 2 channelsChannel layout : L RSampling rate : 48.0 kHzFrame rate : 31.250 FPS (1536 SPF)Compression mode : LossyStream size : 142 MiB (7%)Title : ДьяковLanguage : RussianService kind : Complete MainDefault : YesForced : No

Скриншоты


[Profile]  [PM] 
Display posts:    
Reply to topic

Current time is: 20-Jul 02:16

All times are UTC + 2



You cannot post new topics in this forum
You cannot reply to topics in this forum
You cannot edit your posts in this forum
You cannot delete your posts in this forum
You cannot vote in polls in this forum
You cannot attach files in this forum
You cannot download files in this forum