Ибица / Ibiza (Арно Лемор / Arnaud Lemort) [2019, Франция, Бельгия, комедия, BDRemux 1080p] Dub (iTunes) + Dub Ukr + Sub Fra + Original Fra

Reply to topic
 
Author
Message

Faust ®

Gender: Unknown

Longevity: 12 years

Posts: 23187

Reputation: 0 [+] [-]

Faust · Post 19-Jun-2023 07:40

[Quote] 

Ибица
Ibiza

Страна: Франция, Бельгия
Жанр: Комедия
Год выпуска: 2019
Продолжительность: 01:26:02
Перевод: Профессиональный (дублированный) iTunes
Субтитры: Французские (forced, full) .pgs
Оригинальная аудиодорожка: Французский
Режиссер: Арно Лемор / Arnaud Lemort
В ролях: Кристиан Клавье, Матильда Сенье, Леопольд Бухсбаум, Пили Груан, Джои Старр, Оливье Маршаль, Фредерик Бель, Луи-До де Ланкесэ, Lola Aubrière, Marie de Dinechin
Описание: Как завоевать сердце новой подруги? Стать лучшим другом ее детей! Совместная поездка на курорт – отличное решение. Только если это… не Ибица!

Тип релиза: BDRemux 1080p
Контейнер: MKV
Видео: MPEG-4 AVC, 1080p, 1920:1080 (16:9), 31573 kbps, 24.000 fps
Аудио 1: AC3, 6 ch, 48 kHz, 384 kbps Русский Dub iTunes
Аудио 2: АС3, 2 ch, 48 kHz, 192 kbps Украинский Dub AAASound
Аудио 3: DTS-HD MA, 6 ch, 48 kHz, 3014 kbps, 24-bit (DTS Core 6 ch, 48 kHz, 1509 kbps, 24-bit) Французский
Формат субтитров: PGS

MediaInfo

GeneralUnique ID                                : 97915170041334155418355157498502823738 (0x49A9C69AC760A69AB38DDD27CBBBBF3A)Complete name                            : G:\Ibiza.2019.FRENCH.REMUX.mkvFormat                                   : MatroskaFormat version                           : Version 4File size                                : 21.1 GiBDuration                                 : 1 h 26 minOverall bit rate mode                    : VariableOverall bit rate                         : 35.2 Mb/sEncoded date                             : UTC 2023-06-18 16:18:49Writing application                      : mkvmerge v20.0.0 ('I Am The Sun') 64-bitWriting library                          : libebml v1.3.5 + libmatroska v1.4.8
VideoID : 1Format : AVCFormat/Info : Advanced Video CodecFormat profile : High@L4.1Format settings : CABAC / 4 Ref FramesFormat settings, CABAC : YesFormat settings, Reference frames : 4 framesFormat settings, GOP : M=3, N=24Codec ID : V_MPEG4/ISO/AVCDuration : 1 h 26 minBit rate mode : VariableBit rate : 31.6 Mb/sMaximum bit rate : 35.0 Mb/sWidth : 1 920 pixelsHeight : 1 080 pixelsDisplay aspect ratio : 16:9Frame rate mode : ConstantFrame rate : 24.000 FPSStandard : NTSCColor space : YUVChroma subsampling : 4:2:0Bit depth : 8 bitsScan type : ProgressiveBits/(Pixel*Frame) : 0.634Stream size : 19.0 GiB (90%)Language : EnglishDefault : YesForced : NoColor range : LimitedColor primaries : BT.709Transfer characteristics : BT.709Matrix coefficients : BT.709
Audio #1ID : 2Format : AC-3Format/Info : Audio Coding 3Commercial name : Dolby DigitalCodec ID : A_AC3Duration : 1 h 26 minBit rate mode : ConstantBit rate : 384 kb/sChannel(s) : 6 channelsChannel layout : L R C LFE Ls RsSampling rate : 48.0 kHzFrame rate : 31.250 FPS (1536 SPF)Compression mode : LossyStream size : 236 MiB (1%)Title : Dub iTunesLanguage : RussianService kind : Complete MainDefault : YesForced : No
Audio #2ID : 3Format : AC-3Format/Info : Audio Coding 3Commercial name : Dolby DigitalCodec ID : A_AC3Duration : 1 h 26 minBit rate mode : ConstantBit rate : 192 kb/sChannel(s) : 2 channelsChannel layout : L RSampling rate : 48.0 kHzFrame rate : 31.250 FPS (1536 SPF)Compression mode : LossyStream size : 118 MiB (0%)Title : Dub AAASoundLanguage : UkrainianService kind : Complete MainDefault : NoForced : No
Audio #3ID : 4Format : DTS XLLFormat/Info : Digital Theater SystemsCommercial name : DTS-HD Master AudioCodec ID : A_DTSDuration : 1 h 26 minBit rate mode : VariableBit rate : 3 014 kb/sChannel(s) : 6 channelsChannel layout : C L R Ls Rs LFESampling rate : 48.0 kHzFrame rate : 93.750 FPS (512 SPF)Bit depth : 24 bitsCompression mode : LosslessStream size : 1.81 GiB (9%)Language : FrenchDefault : NoForced : No
Text #1ID : 5Format : PGSMuxing mode : zlibCodec ID : S_HDMV/PGSCodec ID/Info : Picture based subtitle format used on BDs/HD-DVDsDuration : 1 h 5 minBit rate : 774 b/sCount of elements : 40Stream size : 374 KiB (0%)Title : forcedLanguage : FrenchDefault : NoForced : No
Text #2ID : 6Format : PGSMuxing mode : zlibCodec ID : S_HDMV/PGSCodec ID/Info : Picture based subtitle format used on BDs/HD-DVDsDuration : 1 h 26 minBit rate : 43.9 kb/sCount of elements : 3284Stream size : 27.0 MiB (0%)Language : FrenchDefault : NoForced : No
Menu00:00:00.000 : en:Chapter 100:06:39.791 : en:Chapter 200:14:23.958 : en:Chapter 300:20:40.958 : en:Chapter 400:26:57.041 : en:Chapter 500:32:19.625 : en:Chapter 600:39:51.291 : en:Chapter 700:47:00.291 : en:Chapter 800:54:41.000 : en:Chapter 901:01:33.500 : en:Chapter 1001:09:16.250 : en:Chapter 1101:16:26.500 : en:Chapter 12

Скриншоты



[Profile]  [PM] 
Display posts:    
Reply to topic

Current time is: 20-Jul 02:15

All times are UTC + 2



You cannot post new topics in this forum
You cannot reply to topics in this forum
You cannot edit your posts in this forum
You cannot delete your posts in this forum
You cannot vote in polls in this forum
You cannot attach files in this forum
You cannot download files in this forum