Реалити / Reality (Тина Саттер / Tina Satter) [2023, США, драма, биография, история, WEB-DL 1080p] 2х MVO (HDRezka Studio, TVShows) + MVO Ukr + Sub (Eng, Spa) + Original Eng

Reply to topic
 
Author
Message

Faust ®

Gender: Unknown

Longevity: 12 years

Posts: 23217

Reputation: 0 [+] [-]

Faust · Post 19-Jun-2023 07:40

[Quote] 

Реалити
Reality

Страна: США
Жанр: Драма, биография, история
Год выпуска: 2023
Продолжительность: 01:22:18
Перевод 1: Профессиональный (многоголосый закадровый) HDRezka Studio
Перевод 2: Профессиональный (многоголосый закадровый) TVShows
Субтитры: Русские forced, украинские forced, английские, испанские
Оригинальная аудиодорожка: Английский
Режиссер: Тина Саттер / Tina Satter
В ролях: Сидни Суини, Джош Хэмилтон, Маршант Дэвис, Бенни Элледж, Джон Уэй, Аллан Энтони Смит, Darby, Arlo
Описание: История бывшего агента американской разведки Реалити Уиннер. Она получила самый длительный тюремный срок (пять лет и три месяца) за раскрытие СМИ секретной правительственной информации.
Спасибо kro44i за дорожку

Тип релиза: WEB-DL 1080p
Контейнер: MKV
Видео: MPEG-4 AVC, 1080p, 1920:960 (2.0:1), 9177 kbps, 24.000 fps
Аудио 1: АС3, 6 ch, 48 kHz, 448 kbps Русский MVO HDRezka Studio
Аудио 2: АС3, 6 ch, 48 kHz, 448 kbps Русский MVO TVShows
Аудио 3: АС3, 6 ch, 48 kHz, 384 kbps Украинский MVO DniproFilm/HDRezka Studio
Аудио 4: E-AC3, 6 ch, 48 kHz, 640 kbps Английский
Формат субтитров: SRT

MediaInfo

GeneralUnique ID                                : 115233588843834282256544197053893243492 (0x56B12E9350BE93E60B422D006F5EF264)Complete name                            : G:\Reality.2023.AMZN.WEB-DL.1080p.mkvFormat                                   : MatroskaFormat version                           : Version 4File size                                : 6.38 GiBDuration                                 : 1 h 22 minOverall bit rate                         : 11.1 Mb/sEncoded date                             : UTC 2023-06-18 14:35:36Writing application                      : mkvmerge v20.0.0 ('I Am The Sun') 64-bitWriting library                          : libebml v1.3.5 + libmatroska v1.4.8
VideoID : 1Format : AVCFormat/Info : Advanced Video CodecFormat profile : High@L4Format settings : CABAC / 4 Ref FramesFormat settings, CABAC : YesFormat settings, Reference frames : 4 framesCodec ID : V_MPEG4/ISO/AVCDuration : 1 h 22 minBit rate mode : ConstantBit rate : 9 177 kb/sNominal bit rate : 10 000 kb/sWidth : 1 920 pixelsHeight : 960 pixelsDisplay aspect ratio : 2.000Frame rate mode : ConstantFrame rate : 24.000 FPSColor space : YUVChroma subsampling : 4:2:0Bit depth : 8 bitsScan type : ProgressiveBits/(Pixel*Frame) : 0.207Stream size : 5.28 GiB (83%)Language : EnglishDefault : YesForced : NoColor range : LimitedColor primaries : BT.709Transfer characteristics : BT.709Matrix coefficients : BT.709
Audio #1ID : 2Format : AC-3Format/Info : Audio Coding 3Commercial name : Dolby DigitalCodec ID : A_AC3Duration : 1 h 22 minBit rate mode : ConstantBit rate : 448 kb/sChannel(s) : 6 channelsChannel layout : L R C LFE Ls RsSampling rate : 48.0 kHzFrame rate : 31.250 FPS (1536 SPF)Compression mode : LossyStream size : 264 MiB (4%)Title : MVO HDRezka StudioLanguage : RussianService kind : Complete MainDefault : YesForced : No
Audio #2ID : 3Format : AC-3Format/Info : Audio Coding 3Commercial name : Dolby DigitalCodec ID : A_AC3Duration : 1 h 22 minBit rate mode : ConstantBit rate : 448 kb/sChannel(s) : 6 channelsChannel layout : L R C LFE Ls RsSampling rate : 48.0 kHzFrame rate : 31.250 FPS (1536 SPF)Compression mode : LossyStream size : 264 MiB (4%)Title : MVO TVShowsLanguage : RussianService kind : Complete MainDefault : NoForced : No
Audio #3ID : 4Format : AC-3Format/Info : Audio Coding 3Commercial name : Dolby DigitalCodec ID : A_AC3Duration : 1 h 22 minBit rate mode : ConstantBit rate : 384 kb/sChannel(s) : 6 channelsChannel layout : L R C LFE Ls RsSampling rate : 48.0 kHzFrame rate : 31.250 FPS (1536 SPF)Compression mode : LossyStream size : 226 MiB (3%)Title : MVO DniproFilm/HDRezka StudioLanguage : UkrainianService kind : Complete MainDefault : NoForced : No
Audio #4ID : 5Format : E-AC-3Format/Info : Enhanced AC-3Commercial name : Dolby Digital PlusCodec ID : A_EAC3Duration : 1 h 22 minBit rate mode : ConstantBit rate : 640 kb/sChannel(s) : 6 channelsChannel layout : L R C LFE Ls RsSampling rate : 48.0 kHzFrame rate : 31.250 FPS (1536 SPF)Compression mode : LossyStream size : 377 MiB (6%)Language : EnglishService kind : Complete MainDefault : NoForced : No
Text #1ID : 6Format : UTF-8Codec ID : S_TEXT/UTF8Codec ID/Info : UTF-8 Plain TextDuration : 1 h 17 minBit rate : 6 b/sCount of elements : 61Stream size : 3.82 KiB (0%)Title : forcedLanguage : RussianDefault : YesForced : No
Text #2ID : 7Format : UTF-8Codec ID : S_TEXT/UTF8Codec ID/Info : UTF-8 Plain TextDuration : 1 h 16 minBit rate : 3 b/sCount of elements : 30Stream size : 2.14 KiB (0%)Title : forcedLanguage : UkrainianDefault : NoForced : No
Text #3ID : 8Format : UTF-8Codec ID : S_TEXT/UTF8Codec ID/Info : UTF-8 Plain TextDuration : 1 h 16 minBit rate : 80 b/sCount of elements : 1427Stream size : 45.1 KiB (0%)Language : EnglishDefault : NoForced : No
Text #4ID : 9Format : UTF-8Codec ID : S_TEXT/UTF8Codec ID/Info : UTF-8 Plain TextDuration : 1 h 16 minBit rate : 73 b/sCount of elements : 1435Stream size : 41.2 KiB (0%)Language : SpanishDefault : NoForced : No

Скриншоты


[Profile]  [PM] 
Display posts:    
Reply to topic

Current time is: 25-Jul 05:24

All times are UTC + 2



You cannot post new topics in this forum
You cannot reply to topics in this forum
You cannot edit your posts in this forum
You cannot delete your posts in this forum
You cannot vote in polls in this forum
You cannot attach files in this forum
You cannot download files in this forum