Обнаженная женщина / Nudo di donna (Нино Манфреди / Nino Manfredi, Альберто Латтуада / Alberto Lattuada) [1981, Италия, Франция, мелодрама, комедия, WEB-DL 1080p] DVO (ТВЦ) + Sub Ita + Original Ita

Reply to topic
 
Author
Message

Faust ®

Gender: Unknown

Longevity: 12 years

Posts: 23187

Reputation: 0 [+] [-]

Faust · Post 19-Jun-2023 07:40

[Quote] 

Обнаженная женщина / Nudo di donna
Страна: Италия, Франция
Жанр: мелодрама, комедия
Год выпуска: 1981
Продолжительность: 01:39:52
Перевод: Профессиональный (двухголосый закадровый) ТВЦ
Субтитры: итальянские
Оригинальная аудиодорожка: итальянский
Режиссер: Нино Манфреди / Nino Manfredi, Альберто Латтуада / Alberto Lattuada
В ролях: Нино Манфреди, Элеонора Джорджи, Жан-Пьер Кассель, Жорж Вильсон, Карло Баньо, Беатрис Ринг, Донато Кастелланета, Тони Барпи, Джузеппе Маффиоли, Уэст Бьюкэнэн...
Описание: Однажды торговец книгами Сандро увидел фотографию обнаженной красотки, как две капли воды похожей на его жену Лауру. Оправившись от шока, он начинает собственное расследование, которое приносит странные результаты — то ли его Лаура страдает раздвоением личности, то ли существуют две одинаковые женщины. И это не последний сюрприз…
Доп. информация: Перевод с DVD от snikersni66. Синхронизация звука - Dreven.
Сэмпл: http://sendfile.su/1670205
Тип релиза: WEB-DL 1080p
Контейнер: MKV
Видео: 1916x1036 (1.85:1), 25.000 fps, AVC, ~5198 Kbps, 0.105 bits/pixel
Аудио 1: Russian, 48.0 KHz, AC3, 2 ch, 192 Kbps - ТВЦ
Аудио 2: Italian, 48.0 KHz, AC3+, 2 ch, 128 Kbps

MediaInfo

GeneralUnique ID                   : 5546268085899858477088705107566079635 (0x42C2C210165F408299B8D52BED12E93)Complete name               : E:\Nudo di donna. WEB-DL 1080p.mkvFormat                      : MatroskaFormat version              : Version 4File size                   : 3.93 GiBDuration                    : 1 h 39 minOverall bit rate            : 5 630 kb/sEncoded date                : UTC 2023-06-18 10:46:39Writing application         : mkvmerge v44.0.0 ('Domino') 64-bitWriting library             : libebml v1.3.10 + libmatroska v1.5.2Cover                       : YesAttachments                 : cover.jpg
VideoID : 1Format : AVCFormat/Info : Advanced Video CodecFormat profile : High@L4.1Format settings : CABAC / 4 Ref FramesFormat settings, CABAC : YesFormat settings, Reference : 4 framesCodec ID : V_MPEG4/ISO/AVCDuration : 1 h 39 minBit rate : 5 308 kb/sWidth : 1 916 pixelsHeight : 1 036 pixelsDisplay aspect ratio : 1.85:1Frame rate mode : ConstantFrame rate : 25.000 FPSColor space : YUVChroma subsampling : 4:2:0Bit depth : 8 bitsScan type : ProgressiveBits/(Pixel*Frame) : 0.107Stream size : 3.70 GiB (94%)Writing library : x264 core 164 r3106 eaa68faEncoding settings : cabac=1 / ref=4 / deblock=1:-3:-3 / analyse=0x3:0x133 / me=umh / subme=10 / psy=1 / psy_rd=1.00:0.00 / mixed_ref=1 / me_range=32 / chroma_me=1 / trellis=2 / 8x8dct=1 / cqm=0 / deadzone=21,11 / fast_pskip=0 / chroma_qp_offset=-2 / threads=12 / lookahead_threads=2 / sliced_threads=0 / nr=0 / decimate=0 / interlaced=0 / bluray_compat=0 / constrained_intra=0 / bframes=8 / b_pyramid=2 / b_adapt=2 / b_bias=0 / direct=3 / weightb=1 / open_gop=0 / weightp=2 / keyint=250 / keyint_min=23 / scenecut=40 / intra_refresh=0 / rc_lookahead=60 / rc=crf / mbtree=0 / crf=21.8 / qcomp=0.60 / qpmin=0 / qpmax=69 / qpstep=4 / vbv_maxrate=62500 / vbv_bufsize=78125 / crf_max=0.0 / nal_hrd=none / filler=0 / ip_ratio=1.40 / pb_ratio=1.30 / aq=3:0.90Language : ItalianDefault : YesForced : No
Audio #1ID : 2Format : AC-3Format/Info : Audio Coding 3Commercial name : Dolby DigitalCodec ID : A_AC3Duration : 1 h 39 minBit rate mode : ConstantBit rate : 192 kb/sChannel(s) : 2 channelsChannel layout : L RSampling rate : 48.0 kHzFrame rate : 31.250 FPS (1536 SPF)Compression mode : LossyStream size : 137 MiB (3%)Title : ТВЦLanguage : RussianService kind : Complete MainDefault : YesForced : No
Audio #2ID : 3Format : E-AC-3Format/Info : Enhanced AC-3Commercial name : Dolby Digital PlusCodec ID : A_EAC3Duration : 1 h 39 minBit rate mode : ConstantBit rate : 128 kb/sChannel(s) : 2 channelsChannel layout : L RSampling rate : 48.0 kHzFrame rate : 31.250 FPS (1536 SPF)Compression mode : LossyStream size : 91.4 MiB (2%)Language : ItalianService kind : Complete MainDefault : NoForced : No
TextID : 4Format : UTF-8Codec ID : S_TEXT/UTF8Codec ID/Info : UTF-8 Plain TextDuration : 1 h 38 minBit rate : 57 b/sCount of elements : 1280Stream size : 41.7 KiB (0%)Language : ItalianDefault : NoForced : No
Menu00:00:00.000 : :01. Inizio film (La crisi di coppia)00:15:07.760 : :02. L'arte erotica00:19:53.560 : :03. La separazione00:27:29.280 : :04. La fotografia00:35:58.960 : :05. La ricerca00:48:35.200 : :06. Una sosia00:53:35.040 : :07. Confusione e vicinanza01:11:44.440 : :08. Il dubbio01:19:45.360 : :09. Le lettere d'addio01:24:36.800 : :10. La scorciatoia01:27:19.040 : :11. La festa in maschera01:35:29.520 : :12. La decisione (Titoli di coda)

Скриншоты

[Profile]  [PM] 
Display posts:    
Reply to topic

Current time is: 20-Jul 02:13

All times are UTC + 2



You cannot post new topics in this forum
You cannot reply to topics in this forum
You cannot edit your posts in this forum
You cannot delete your posts in this forum
You cannot vote in polls in this forum
You cannot attach files in this forum
You cannot download files in this forum