Робокоп 3 / Робот-полицейский 3 / RoboCop 3 (Фред Деккер / Fred Dekker) [1993, США, фантастика, боевик, триллер, драма, криминал, BDRip-AVC] MVO (VHS "Лазер Видео") + DVO (DVD "Видеосервис") + Original Eng + Sub (rus, eng)

Reply to topic
 
Author
Message

Satyr ®

Gender: Unknown

Longevity: 15 years

Posts: 22045

Reputation: 56 [+] [-]

Satyr · Post 19-Jun-2023 15:50

[Quote] 

Робокоп 3 / Робот-полицейский 3 / RoboCop 3
Страна: США
Жанр: фантастика, боевик, триллер, драма, криминал
Год выпуска: 1993
Продолжительность: 01:44:50
Перевод 1: Профессиональный (многоголосый закадровый) / VHS «Лазер Видео»
Перевод 2: Профессиональный (двухголосый закадровый) / DVD «Видеосервис»
Субтитры: русские (1. SunderAlv; 2. Blu-ray), английские
Оригинальная аудиодорожка: английский
Режиссер: Фред Деккер / Fred Dekker
В ролях: Роберт Джон Бёрк (Robert John Burke (в титрах: Robert Burke) / RoboCop), Нэнси Аллен (Nancy Allen / Officer Anne Lewis), Джилл Хеннесси (Jill Hennessy / Dr. Marie Lazarus), Си Си Эйч Паундер (CCH Pounder / Bertha), Дэниэл фон Барген (Daniel von Bargen / Moreno), Стенли Андерсон (Stanley Anderson / Zack), Стивен Рут (Stephen Root / Coontz), Реми Райан (Remy Ryan Hernandez / Nikko), Рип Торн (Rip Torn / The CEO), Джон Касл (John Castle / Paul McDaggett), Роберт Дукуй (Robert DoQui (в титрах: Robert Do'Qui) / Sergeant Warren Reed), Брэдли Уитфорд (Bradley Whitford / Fleck), Фелтон Перри (Felton Perry / Johnson), Марио Мачадо (Mario Machado / Casey Wong), Мако (Mako / Kanemitsu), Джадсон Вон (Judson Vaughn / Seltz), Джон Пози (John Posey / Nikko's Dad), Джоди Лонг (Jodi Long/ Nikko's Mom), Брюс Лок (Bruce Locke / Otomo), Шейн Блэк (Shane Black / Donnelly ) и другие.
Описание: Корпорация ОКП хочет построить утопический «Дельта-Сити» на месте Детройта. С этой целью людей массово выселяют из домов, которые подлежат сносу. В самом же Детройте в это время процветает преступность и коррупция. Группа людей из района «Кадиллак-Хайтс» выступает против перемен и организует повстанческое движение. Робокоп будучи полицейским находится на стороне властей, но гибель Льюис заставляет его изменить взгляды и перейти на сторону повстанцев. ОКП это не устраивает, и они планируют от него избавиться с помощью киборга-самурая…
Доп. информация: За исходник для видео спасибо Lt. Aldo Raine. За озвучку MVO (оцифровка лицензионной VHS «Лазер Видео») спасибо JUSTKANT. За озвучку DVO «Видеосервис» спасибо Andrei Stalker 2345.
Субтитров с русским переводом два варианта: первые мои с нормальным адекватным переводом (субтитры ВОВАНСа, которые присутствуют в других раздачах я использовать не стал по причине крайне низкого качества перевода), вторые с Blu-ray.
IMDB – 4.1
Сэмпл: Здесь
Качество видео: BDRip-AVC (Исходник Blu-ray disc 1080)
Формат видео: MKV
Видео: H.264, 1056x572 (1,85:1) / 23,976 fps / 2861 kbps / 0,198 bit/pixel
Аудио 1: Russian: AC3 2/0 (L, R) ch, 192 kbps, 48 kHz, 16 bit / MVO (Лазер Видео)
Аудио 2: Russian: AC3 2/0 (L, R) ch, 192 kbps, 48 kHz, 16 bit / DVO (Видеосервис)
Аудио 3: English: AC3 3/2 (L, C, R, I, r) + LFE ch, 448 kbps, 48 kHz, 16 bit
Формат субтитров: softsub (SRT/UTF-8)

MediaInfo

ОбщееУникальный идентификатор                 : 208551834188441717522654505214158604253 (0x9CE59F4B411CADDE9E0DF9495A9887DD)Полное имя                               : D:\FILMS S TORRENTS\RoboCop_3.1993_BDRip-AVC.MVO+DVO+Original+Sub[2xRus+Eng].mkvФормат                                   : MatroskaВерсия формата                           : Version 2Размер файла                             : 2,76 ГбайтПродолжительность                        : 1 ч. 44 м.Общий поток                              : 3768 Кбит/секДата кодирования                         : UTC 2023-06-16 12:02:58Программа кодирования                    : mkvmerge v5.7.0 ('The Whirlwind') built on Jul 29 2012 15:12:35Библиотека кодирования                   : libebml v1.2.3 + libmatroska v1.3.0Обложка                                  : YesAttachments                              : cover.jpg
ВидеоИдентификатор : 1Формат : AVCФормат/Информация : Advanced Video CodecПрофиль формата : High@L4.1Настройки формата : CABAC / 12 Ref FramesПараметр CABAC формата : ДаПараметр RefFrames формата : 12 кадровИдентификатор кодека : V_MPEG4/ISO/AVCПродолжительность : 1 ч. 44 м.Битрейт : 2861 Кбит/секШирина : 1056 пикселейВысота : 572 пикселяСоотношение сторон : 1,85:1Режим частоты кадров : ПостоянныйЧастота кадров : 23,976 (24000/1001) кадра/секЦветовое пространство : YUVСубдискретизация насыщенности : 4:2:0Битовая глубина : 8 битТип развёртки : ПрогрессивнаяБит/(Пиксели*Кадры) : 0.198Размер потока : 2,10 Гбайт (76%)Заголовок : BDRip-AVC 1056x572Библиотека кодирования : x264 core 164 r3107 a8b68ebНастройки программы : cabac=1 / ref=12 / deblock=1:-3:-2 / analyse=0x3:0x133 / me=umh / subme=11 / psy=1 / psy_rd=1.00:0.15 / mixed_ref=1 / me_range=32 / chroma_me=1 / trellis=2 / 8x8dct=1 / cqm=0 / deadzone=21,11 / fast_pskip=0 / chroma_qp_offset=-3 / threads=18 / lookahead_threads=4 / sliced_threads=0 / nr=0 / decimate=1 / interlaced=0 / bluray_compat=0 / constrained_intra=0 / bframes=16 / b_pyramid=2 / b_adapt=2 / b_bias=0 / direct=3 / weightb=1 / open_gop=0 / weightp=2 / keyint=240 / keyint_min=23 / scenecut=40 / intra_refresh=0 / rc_lookahead=60 / rc=crf / mbtree=0 / crf=20.3 / qcomp=0.70 / qpmin=0 / qpmax=69 / qpstep=4 / vbv_maxrate=62500 / vbv_bufsize=78125 / crf_max=0.0 / nal_hrd=none / filler=0 / ip_ratio=1.40 / pb_ratio=1.30 / aq=1:1.00Язык : EnglishDefault : ДаForced : НетЦветовой диапазон : LimitedОсновные цвета : BT.709Характеристики трансфера : BT.709Коэффициенты матрицы : BT.709
Аудио #1Идентификатор : 2Формат : AC-3Формат/Информация : Audio Coding 3Идентификатор кодека : A_AC3Продолжительность : 1 ч. 44 м.Вид битрейта : ПостоянныйБитрейт : 192 Кбит/секКаналы : 2 каналаРасположение каналов : Front: L RЧастота : 48,0 КГцЧастота кадров : 31,250 кадров/сек (1536 SPF)Битовая глубина : 16 битМетод сжатия : С потерямиРазмер потока : 144 Мбайт (5%)Заголовок : MVO (VHS "Лазер Видео")Язык : RussianServiceKind/String : Complete MainDefault : ДаForced : Нет
Аудио #2Идентификатор : 3Формат : AC-3Формат/Информация : Audio Coding 3Идентификатор кодека : A_AC3Продолжительность : 1 ч. 44 м.Вид битрейта : ПостоянныйБитрейт : 192 Кбит/секКаналы : 2 каналаРасположение каналов : Front: L RЧастота : 48,0 КГцЧастота кадров : 31,250 кадров/сек (1536 SPF)Битовая глубина : 16 битМетод сжатия : С потерямиРазмер потока : 144 Мбайт (5%)Заголовок : DVO (DVD "Видеосервис")Язык : RussianServiceKind/String : Complete MainDefault : НетForced : Нет
Аудио #3Идентификатор : 4Формат : AC-3Формат/Информация : Audio Coding 3Идентификатор кодека : A_AC3Продолжительность : 1 ч. 44 м.Вид битрейта : ПостоянныйБитрейт : 448 Кбит/секКаналы : 6 каналовРасположение каналов : Front: L C R, Side: L R, LFEЧастота : 48,0 КГцЧастота кадров : 31,250 кадров/сек (1536 SPF)Битовая глубина : 16 битМетод сжатия : С потерямиРазмер потока : 336 Мбайт (12%)Заголовок : OriginalЯзык : EnglishServiceKind/String : Complete MainDefault : НетForced : Нет
Текст #1Идентификатор : 5Формат : UTF-8Идентификатор кодека : S_TEXT/UTF8Идентификатор кодека/Информация : UTF-8 Plain TextЗаголовок : Full, var.1Язык : RussianDefault : НетForced : Нет
Текст #2Идентификатор : 6Формат : UTF-8Идентификатор кодека : S_TEXT/UTF8Идентификатор кодека/Информация : UTF-8 Plain TextЗаголовок : Full, var.2Язык : RussianDefault : НетForced : Нет
Текст #3Идентификатор : 7Формат : UTF-8Идентификатор кодека : S_TEXT/UTF8Идентификатор кодека/Информация : UTF-8 Plain TextЗаголовок : FullЯзык : EnglishDefault : НетForced : Нет
Меню00:00:00.000 : en:Main Title/Eviction00:08:00.939 : en:Arming Up00:12:33.586 : en:Police Activity00:21:09.602 : en:Splatter Punks00:24:01.482 : en:Judgement Calls00:32:53.680 : en:Serve The Public00:40:17.373 : en:Underground00:46:17.608 : en:Reparations00:52:48.874 : en:Good As New01:01:45.911 : en:Unfinished Business01:13:26.360 : en:Invasion01:19:11.163 : en:Good Vs. Evil01:27:13.979 : en:Airborne01:31:47.794 : en:Reverse Circuitry01:35:47.075 : en:Respect And Honor01:37:34.474 : en:End Credits

x264 crf log

x264 [info]: frame I:1243 Avg QP:18.96 size: 67519
x264 [info]: frame P:30238 Avg QP:20.24 size: 29248
x264 [info]: frame B:119332 Avg QP:22.24 size: 11213
x264 [info]: consecutive B-frames: 2.1% 2.2% 6.4% 13.9% 15.5% 40.1% 7.0% 2.6% 1.9% 2.2% 1.7% 1.1% 0.9% 0.7% 0.7% 0.5% 0.5%
x264 [info]: mb I I16..4: 5.4% 82.3% 12.4%
x264 [info]: mb P I16..4: 0.5% 16.9% 1.3% P16..4: 30.4% 34.4% 9.8% 0.9% 0.0% skip: 5.7%
x264 [info]: mb B I16..4: 0.1% 1.2% 0.1% B16..8: 39.8% 20.6% 2.9% direct: 5.9% skip:29.3% L0:47.3% L1:43.7% BI: 9.0%
x264 [info]: 8x8 transform intra:88.6% inter:64.7%
x264 [info]: direct mvs spatial:100.0% temporal:0.0%
x264 [info]: coded y,uvDC,uvAC intra: 94.7% 87.4% 60.8% inter: 31.7% 28.9% 2.7%
x264 [info]: i16 v,h,dc,p: 40% 19% 7% 34%
x264 [info]: i8 v,h,dc,ddl,ddr,vr,hd,vl,hu: 8% 8% 7% 10% 14% 13% 13% 12% 14%
x264 [info]: i4 v,h,dc,ddl,ddr,vr,hd,vl,hu: 12% 11% 3% 8% 14% 14% 14% 11% 12%
x264 [info]: i8c dc,h,v,p: 39% 25% 18% 18%
x264 [info]: Weighted P-Frames: Y:12.8% UV:9.0%
x264 [info]: ref P L0: 42.4% 11.4% 18.2% 6.9% 5.8% 3.9% 3.5% 1.8% 1.8% 1.4% 1.4% 1.2% 0.2% 0.0%
x264 [info]: ref B L0: 65.9% 13.4% 7.4% 3.8% 2.8% 2.3% 1.7% 1.1% 0.9% 0.6% 0.2%
x264 [info]: ref B L1: 92.4% 7.6%
x264 [info]: kb/s:2933.40
encoded 150813 frames, 15.09 fps, 2933.40 kb/s

Скриншот c названием фильма

Скриншоты

Сравнение с исходником

Rip ....................... Blu-ray
[Profile]  [PM] 
Display posts:    
Reply to topic

Current time is: 25-Jul 05:23

All times are UTC + 2



You cannot post new topics in this forum
You cannot reply to topics in this forum
You cannot edit your posts in this forum
You cannot delete your posts in this forum
You cannot vote in polls in this forum
You cannot attach files in this forum
You cannot download files in this forum