Парень что надо / Ещё один парень / Just One of the Guys (Лиза Готтлиб / Lisa Gottlieb) [1985, США, комедия, мелодрама, BDRip-AVC] DVO (СТС) + Sub Eng + Original Eng

Reply to topic
 
Author
Message

Satyr ®

Gender: Unknown

Longevity: 15 years

Posts: 22045

Reputation: 56 [+] [-]

Satyr · Post 19-Jun-2023 19:55

[Quote] 

Парень что надо / Ещё один парень / Just One of the Guys Страна: США
Жанр: комедия, мелодрама
Год выпуска: 1985
Продолжительность: 01:40:37-Перевод: профессиональный (двухголосый закадровый) |СТС|
Субтитры: английские-Оригинальная аудиодорожка: английский-Режиссер: Лиза Готтлиб / Lisa Gottlieb-В ролях-Джойс Хайзер, Клейтон Ронер, Билли Джейкоби, Шерилин Фенн, Тони Хадсон, Уильям Забка, Ли МакКлоски, Дебора Гудрич, Ари Гросс, Роберт Филдстил и др.-Описание-Слушательница курса журналистики Терри Гриффит на грани отчаяния. Она уверена, что все преподаватели не воспринимают ее всерьез, потому что она слишком хорошенькая. Проиграв конкурс на лучшую статью, Терри решает кардинально изменить свою жизнь.
Она делает новую стрижку, меняет одежду, учится говорить низким голосом и… превращается в симпатичного парня. Ей удается отлично справляться с новой ролью. Все идет как по маслу до тех пор, пока Терри не встречает Стога, тихого, красивого парня, совсем не похожего на тех, кто ее окружает…
-Качество видео: BDRip
Исходное видео: BDRemux 1080p
Контейнер: MKV-Видео: AVC, ~2700 kbps, 936x506 (1.85:1), 23.976 fps
Аудио: AC-3, 192 kbps, Dolby Digital, 2 ch, 48 KHz |DVO СТС|
Аудио: AC-3, 192 kbps, Dolby Digital, 2 ch, 48 KHz |Original|
Формат субтитров: softsub (SRT)
Главы: есть (не подписаны)-IMDb
Кинопоиск

MediaInfo

х264

VIDEO ENCODING
------------------------------
Encoding video to: D:\Temp\0031.264
x264 Q19.1 936x506 23.976fps (144295 frames)
avs4x26x.exe: -L x264_64.exe --crf 19.1 --preset placebo --level 4.1 --ref 14 --aq-mode 3 --aq-strength 0.9 --deblock -3:-2 --merange 48 --me umh --no-mbtree --keyint 240 --colorprim bt709 --transfer bt709 --colormatrix bt709 --vbv-bufsize 62500 --vbv-maxrate 50000 --partitions p8x8,b8x8,i4x4,i8x8 --sar 1:1 --output "D:\Temp\0031.264" "D:\Temp\0031.avs"
raw [info]: 936x506p 1:1 @ 24000/1001 fps (cfr)
x264 [info]: using SAR=1/1
x264 [info]: using cpu capabilities: MMX2 SSE2Fast SSSE3 SSE4.2 AVX FMA3 BMI2 AVX2
x264 [info]: profile High, level 4.1, 4:2:0, 8-bit
x264 [info]: frame I:957 Avg QP:18.90 size: 69735
x264 [info]: frame P:28930 Avg QP:20.53 size: 26848
x264 [info]: frame B:114408 Avg QP:22.53 size: 10686
x264 [info]: consecutive B-frames: 1.0% 1.2% 5.0% 22.3% 14.1% 45.3% 8.5% 1.3% 0.6% 0.4% 0.1% 0.0% 0.0% 0.0% 0.0% 0.0% 0.1%
x264 [info]: mb I I16..4: 3.0% 81.8% 15.3%
x264 [info]: mb P I16..4: 0.2% 10.1% 1.3% P16..4: 31.4% 38.8% 14.7% 0.0% 0.0% skip: 3.4%
x264 [info]: mb B I16..4: 0.0% 1.2% 0.1% B16..8: 37.3% 21.5% 4.3% direct: 7.3% skip:28.2% L0:43.6% L1:44.4% BI:12.1%
x264 [info]: 8x8 transform intra:86.6% inter:62.0%
x264 [info]: direct mvs spatial:100.0% temporal:0.0%
x264 [info]: coded y,uvDC,uvAC intra: 95.4% 92.0% 72.0% inter: 36.3% 26.6% 5.9%
x264 [info]: i16 v,h,dc,p: 33% 16% 6% 45%
x264 [info]: i8 v,h,dc,ddl,ddr,vr,hd,vl,hu: 8% 8% 6% 10% 15% 15% 14% 12% 12%
x264 [info]: i4 v,h,dc,ddl,ddr,vr,hd,vl,hu: 12% 8% 3% 9% 15% 16% 14% 12% 12%
x264 [info]: i8c dc,h,v,p: 43% 19% 19% 19%
x264 [info]: Weighted P-Frames: Y:4.8% UV:3.1%
x264 [info]: ref P L0: 40.7% 12.6% 16.6% 6.0% 5.6% 3.8% 3.8% 1.9% 2.0% 1.5% 1.6% 1.2% 1.3% 1.2% 0.1% 0.0%
x264 [info]: ref B L0: 77.6% 8.7% 4.2% 2.2% 1.7% 1.5% 1.2% 0.8% 0.6% 0.6% 0.5% 0.3% 0.2%
x264 [info]: ref B L1: 95.7% 4.3%
x264 [info]: kb/s:2746.35
Format : Matroska
Format version : Version 2
File size : 2.19 GiB
Duration : 1 h 40 min
Overall bit rate : 3 133 kb/s
Frame rate : 23.976 FPS
Movie name : Парень что надо / Ещё один парень / Just One of the Guys (1985)
Encoded date : 2023-06-19 09:15:15 UTC
Writing application : mkvmerge v6.9.1 ('Blue Panther') 32bit built on Apr 18 2014 18:15:44
Writing library : libebml v1.3.0 + libmatroska v1.4.1
Cover : Yes
Attachments : cover.jpg
Video
ID : 1
Format : AVC
Format/Info : Advanced Video Codec
Format profile : High@L4.1
Format settings : CABAC / 14 Ref Frames
Format settings, CABAC : Yes
Format settings, Reference : 14 frames
Codec ID : V_MPEG4/ISO/AVC
Duration : 1 h 40 min
Bit rate : 2 686 kb/s
Width : 936 pixels
Height : 506 pixels
Display aspect ratio : 1.85:1
Frame rate mode : Constant
Frame rate : 23.976 (24000/1001) FPS
Color space : YUV
Chroma subsampling : 4:2:0
Bit depth : 8 bits
Scan type : Progressive
Bits/(Pixel*Frame) : 0.237
Stream size : 1.88 GiB (86%)
Title : Just One of the Guys_CW_RGTru
Writing library : x264 core 164 r3107 a8b68eb
Encoding settings : cabac=1 / ref=14 / deblock=1:-3:-2 / analyse=0x3:0x113 / me=umh / subme=11 / psy=1 / psy_rd=1.00:0.00 / mixed_ref=1 / me_range=48 / chroma_me=1 / trellis=2 / 8x8dct=1 / cqm=0 / deadzone=21,11 / fast_pskip=0 / chroma_qp_offset=-2 / threads=16 / lookahead_threads=3 / sliced_threads=0 / nr=0 / decimate=1 / interlaced=0 / bluray_compat=0 / constrained_intra=0 / bframes=16 / b_pyramid=2 / b_adapt=2 / b_bias=0 / direct=3 / weightb=1 / open_gop=0 / weightp=2 / keyint=240 / keyint_min=23 / scenecut=40 / intra_refresh=0 / rc_lookahead=60 / rc=crf / mbtree=0 / crf=19.1 / qcomp=0.60 / qpmin=0 / qpmax=69 / qpstep=4 / vbv_maxrate=50000 / vbv_bufsize=62500 / crf_max=0.0 / nal_hrd=none / filler=0 / ip_ratio=1.40 / pb_ratio=1.30 / aq=3:0.90
Language : Russian
Default : Yes
Forced : No
Color range : Limited
Color primaries : BT.709
Transfer characteristics : BT.709
Matrix coefficients : BT.709
Audio #1
ID : 2
Format : AC-3
Format/Info : Audio Coding 3
Commercial name : Dolby Digital
Codec ID : A_AC3
Duration : 1 h 40 min
Bit rate mode : Constant
Bit rate : 192 kb/s
Channel(s) : 2 channels
Channel layout : L R
Sampling rate : 48.0 kHz
Frame rate : 31.250 FPS (1536 SPF)
Compression mode : Lossy
Stream size : 138 MiB (6%)
Title : DVO (СТС)
Language : Russian
Service kind : Complete Main
Default : Yes
Forced : No
Audio #2
ID : 3
Format : AC-3
Format/Info : Audio Coding 3
Commercial name : Dolby Digital
Codec ID : A_AC3
Duration : 1 h 40 min
Bit rate mode : Constant
Bit rate : 192 kb/s
Channel(s) : 2 channels
Channel layout : L R
Sampling rate : 48.0 kHz
Frame rate : 31.250 FPS (1536 SPF)
Compression mode : Lossy
Stream size : 138 MiB (6%)
Title : Original
Language : English
Service kind : Complete Main
Default : No
Forced : No
Text
ID : 4
Format : UTF-8
Codec ID : S_TEXT/UTF8
Codec ID/Info : UTF-8 Plain Text
Title : SDH
Language : English
Default : No
Forced : No
Menu
00:00:00.000 : Chapter 01
00:02:42.495 : Chapter 02
00:05:16.649 : Chapter 03
00:07:36.122 : Chapter 04
00:09:59.932 : Chapter 05
00:14:37.293 : Chapter 06
00:17:45.647 : Chapter 07
00:21:28.578 : Chapter 08
00:24:03.191 : Chapter 09
00:30:03.009 : Chapter 10
00:34:18.973 : Chapter 11
00:37:12.647 : Chapter 12
00:38:41.402 : Chapter 13
00:43:03.289 : Chapter 14
00:48:41.793 : Chapter 15
00:50:35.240 : Chapter 16
00:55:17.814 : Chapter 17
00:58:33.176 : Chapter 18
01:00:34.380 : Chapter 19
01:02:41.007 : Chapter 20
01:06:01.290 : Chapter 21
01:07:52.651 : Chapter 22
01:10:49.453 : Chapter 23
01:16:16.738 : Chapter 24
01:18:15.107 : Chapter 25
01:24:04.164 : Chapter 26
01:27:17.690 : Chapter 27
01:34:41.342 : Chapter 28
01:40:18.220 : Chapter 29
01:40:25.060 : Chapter 30

Скриншоты

[Profile]  [PM] 
Display posts:    
Reply to topic

Current time is: 25-Jul 05:23

All times are UTC + 2



You cannot post new topics in this forum
You cannot reply to topics in this forum
You cannot edit your posts in this forum
You cannot delete your posts in this forum
You cannot vote in polls in this forum
You cannot attach files in this forum
You cannot download files in this forum