Аэроплан 2: Продолжение / Airplane II: The Sequel (Кен Финклмен / Ken Finkleman) [1982, США, фантастика, комедия, BDRip-AVC] VO + Original Eng

Reply to topic
 
Author
Message

Satyr ®

Gender: Unknown

Longevity: 15 years

Posts: 22031

Reputation: 56 [+] [-]

Satyr · Post 20-Jun-2023 04:05

[Quote] 

Аэроплан 2: Продолжение / Airplane II: The Sequel
Страна: США
Жанр: фантастика, комедия
Год выпуска: 1982
Продолжительность: 01:24:16
Перевод: Одноголосый закадровый
Оригинальная аудиодорожка: английский
Субтитры: нет
Режиссер: Кен Финклмен / Ken Finkleman
В ролях: Роберт Хэйс, Джули Хэгерти, Ллойд Бриджес, Чад Эверетт, Питер Грейвз, Чак Коннорс, Уильям Шетнер, Рэймонд Барр, Джон Вернон
Описание: Аннотация от alenavova
Полет "Шатла", совершающего первый регулярный рейс на Луну, проходит нормально, если не считать того, что все системы корабля отказали, на борту находится безумный террорист, угрожающий взорвать звездолет, и, что самое страшное, у экипажа... абсолютно кончился кофе. Именно так обстоят дела у героев этой замечательной комедии, продолжающей знаменитый фильм "Аэроплан!". В главных ролях опять Роберт Хейз и Джули Хэгарти. Клуб здешних сумасшедших, помимо старых знакомых, включает в себя и множество новых чокнутых, среди которых Питер Грэйвз, Ллойд Бриджес, Уильям Шатнер, Чад Эверетт, Сонни Боно и Рэймонд Бёрр. Удастся ли герою Хейза спасти корабль на этот раз? Именно это Вам и предстоит узнать.когда Вы посмотрите "Аэроплан 2: Продолжение". Настоятельно рекомендуем пристегнуть ремни безопасности, а то лопнете от смеха.
Доп. информация: Дорожку с переводом синхронизировал ale_x2008
За дорожку благодарим - d_rocker

Релиз
Сэмпл: https://www.sendspace.com/file/rhywmp
Качество видео: BDRip-AVC [Airplane II The Sequel 1982.BDRemux.1080p.mkv]
Формат видео: MKV
Видео: MPEG4 Video (H264) 944x528 23.976fps Bit rate 2 312 kb/s
Аудио: Dolby AC3 48000Hz 2 ch (mono) 192kbps
Аудио 2: Dolby AC3 48000Hz 2 ch 192kbps

MediaInfo

Аэроплан 2 - Продолжение (Airplane II - The Sequel) BDRip-AVC [by ale_x2008].mkvFormat                      : MatroskaFormat version              : Version 4File size                   : 1.59 GiBDuration                    : 1 h 24 minOverall bit rate            : 2 698 kb/sFrame rate                  : 23.976 FPSEncoded date                : 2023-06-19 15:54:48 UTCWriting application         : mkvmerge v71.0.0 ('Altitude') 64-bitWriting library             : libebml v1.4.4 + libmatroska v1.7.1
VideoID : 1Format : AVCFormat/Info : Advanced Video CodecFormat profile : High@L4.1Format settings : CABAC / 16 Ref FramesFormat settings, CABAC : YesFormat settings, Reference : 16 framesCodec ID : V_MPEG4/ISO/AVCDuration : 1 h 24 minBit rate : 2 312 kb/sWidth : 944 pixelsHeight : 528 pixelsDisplay aspect ratio : 16:9Frame rate mode : ConstantFrame rate : 23.976 (24000/1001) FPSColor space : YUVChroma subsampling : 4:2:0Bit depth : 8 bitsScan type : ProgressiveBits/(Pixel*Frame) : 0.194Stream size : 1.36 GiB (86%)Writing library : x264 core 148 r2638 7599210Encoding settings : cabac=1 / ref=16 / deblock=1:-3:-3 / analyse=0x3:0x133 / me=umh / subme=9 / psy=1 / psy_rd=1.00:0.00 / mixed_ref=1 / me_range=32 / chroma_me=1 / trellis=2 / 8x8dct=1 / cqm=0 / deadzone=21,11 / fast_pskip=1 / chroma_qp_offset=-2 / threads=16 / lookahead_threads=4 / sliced_threads=0 / nr=0 / decimate=1 / interlaced=0 / bluray_compat=0 / constrained_intra=0 / bframes=10 / b_pyramid=0 / b_adapt=2 / b_bias=0 / direct=3 / weightb=1 / open_gop=0 / weightp=2 / keyint=250 / keyint_min=23 / scenecut=40 / intra_refresh=0 / rc=crf / mbtree=0 / crf=19.0 / qcomp=0.60 / qpmin=0 / qpmax=69 / qpstep=4 / ip_ratio=1.40 / pb_ratio=1.30 / aq=1:1.00Default : YesForced : No
Audio #1ID : 2Format : AC-3Format/Info : Audio Coding 3Commercial name : Dolby DigitalCodec ID : A_AC3Duration : 1 h 24 minBit rate mode : ConstantBit rate : 192 kb/sChannel(s) : 2 channelsChannel layout : L RSampling rate : 48.0 kHzFrame rate : 31.250 FPS (1536 SPF)Compression mode : LossyStream size : 116 MiB (7%)Language : RussianService kind : Complete MainDefault : YesForced : No
Audio #2ID : 3Format : AC-3Format/Info : Audio Coding 3Commercial name : Dolby DigitalCodec ID : A_AC3Duration : 1 h 24 minBit rate mode : ConstantBit rate : 192 kb/sChannel(s) : 2 channelsChannel layout : L RSampling rate : 48.0 kHzFrame rate : 31.250 FPS (1536 SPF)Compression mode : LossyStream size : 116 MiB (7%)Language : EnglishService kind : Complete MainDefault : NoForced : No

Скриншоты


[Profile]  [PM] 
Display posts:    
Reply to topic

Current time is: 20-Jul 02:42

All times are UTC + 2



You cannot post new topics in this forum
You cannot reply to topics in this forum
You cannot edit your posts in this forum
You cannot delete your posts in this forum
You cannot vote in polls in this forum
You cannot attach files in this forum
You cannot download files in this forum