Сорвиголова / Daredevil (Марк Стивен Джонсон / Mark Steven Johnson) [2003, США, Фэнтези, Боевик, Триллер, Криминал, HDRip-AVC] [Театральная версия / Theatrical Cut] AVO (Сергей Визгунов) + Original Eng

Reply to topic
 
Author
Message

Wolf ®

Gender: Unknown

Longevity: 14 years

Posts: 3485

Reputation: 0 [+] [-]

Wolf · Post 20-Jun-2023 20:35

[Quote] 

Сорвиголова / Daredevil
Страна: США
Жанр: Фэнтези, Боевик, Триллер, Криминал
Год выпуска: 2003
Продолжительность: 01:43:35
Перевод: Авторский (одноголосый закадровый) Сергей Визгунов
Субтитры: нет
Оригинальная аудиодорожка: английский
Режиссер: Марк Стивен Джонсон / Mark Steven Johnson
В ролях: Бен Аффлек, Дженнифер Гарнер, Колин Фаррелл, Майкл Кларк Дункан, Джон Фавро, Скотт Терра, Эллен Помпео, Джо Пантольяно, Лиленд Орсер, Ленни Лофтин и др.
Описание: Он живёт в мире вечной ночи, но эта темнота заполнена звуками и запахами, её можно попробовать на вкус и потрогать руками. Адвокат Мэтт Мердок слеп, но остальные органы чувств у него работают, как у супермэна.
Днём Мердок защищает униженных и оскорблённых в зале суда, а ночью превращается в сорвиголову в маске, восстанавливая справедливость на улицах города самыми радикальными методами.
Доп. информация: Дорожку с переводом синхронизировал ale_x2008
За дорожку благодарим - d_rocker

Релиз
Сэмпл: https://www.sendspace.com/file/556iil
Качество видео: HDRip-AVC
Формат видео: MKV
Видео: MPEG4 Video (H264) 944x400 23.976fps Bit rate 1 422 kb/s
Аудио: Dolby AC3 48000Hz 2 ch stereo 192kbps
Аудио 2: Dolby AC3 48000Hz 5.1 448Kbps

MediaInfo

Сорвиголова (Daredevil) HDRip-AVC Vizgunov stereo [by ale_x2008].mkvFormat                      : MatroskaFormat version              : Version 4File size                   : 1.49 GiBDuration                    : 1 h 43 minOverall bit rate            : 2 063 kb/sFrame rate                  : 23.976 FPSEncoded date                : 2023-06-20 14:31:34 UTCWriting application         : mkvmerge v71.0.0 ('Altitude') 64-bitWriting library             : libebml v1.4.4 + libmatroska v1.7.1
VideoID : 1Format : AVCFormat/Info : Advanced Video CodecFormat profile : High@L4.1Format settings : CABAC / 16 Ref FramesFormat settings, CABAC : YesFormat settings, Reference : 16 framesCodec ID : V_MPEG4/ISO/AVCDuration : 1 h 43 minBit rate : 1 422 kb/sWidth : 944 pixelsHeight : 400 pixelsDisplay aspect ratio : 2.35:1Frame rate mode : ConstantFrame rate : 23.976 (24000/1001) FPSColor space : YUVChroma subsampling : 4:2:0Bit depth : 8 bitsScan type : ProgressiveBits/(Pixel*Frame) : 0.157Stream size : 1.03 GiB (69%)Writing library : x264 core 148 r2638 7599210Encoding settings : cabac=1 / ref=16 / deblock=1:-3:-3 / analyse=0x3:0x133 / me=umh / subme=9 / psy=1 / psy_rd=1.00:0.00 / mixed_ref=1 / me_range=32 / chroma_me=1 / trellis=2 / 8x8dct=1 / cqm=0 / deadzone=21,11 / fast_pskip=1 / chroma_qp_offset=-2 / threads=12 / lookahead_threads=3 / sliced_threads=0 / nr=0 / decimate=1 / interlaced=0 / bluray_compat=0 / constrained_intra=0 / bframes=10 / b_pyramid=0 / b_adapt=2 / b_bias=0 / direct=3 / weightb=1 / open_gop=0 / weightp=2 / keyint=250 / keyint_min=23 / scenecut=40 / intra_refresh=0 / rc=crf / mbtree=0 / crf=20.0 / qcomp=0.60 / qpmin=0 / qpmax=69 / qpstep=4 / ip_ratio=1.40 / pb_ratio=1.30 / aq=1:1.00Default : YesForced : No
Audio #1ID : 2Format : AC-3Format/Info : Audio Coding 3Commercial name : Dolby DigitalCodec ID : A_AC3Duration : 1 h 43 minBit rate mode : ConstantBit rate : 192 kb/sChannel(s) : 2 channelsChannel layout : L RSampling rate : 48.0 kHzFrame rate : 31.250 FPS (1536 SPF)Compression mode : LossyStream size : 142 MiB (9%)Language : RussianService kind : Complete MainDefault : YesForced : No
Audio #2ID : 3Format : AC-3Format/Info : Audio Coding 3Commercial name : Dolby DigitalCodec ID : A_AC3Duration : 1 h 43 minBit rate mode : ConstantBit rate : 448 kb/sChannel(s) : 6 channelsChannel layout : L R C LFE Ls RsSampling rate : 48.0 kHzFrame rate : 31.250 FPS (1536 SPF)Compression mode : LossyStream size : 332 MiB (22%)Language : EnglishService kind : Complete MainDefault : NoForced : No

Скриншоты


[Profile]  [PM] 
Display posts:    
Reply to topic

Current time is: 25-Jul 05:46

All times are UTC + 2



You cannot post new topics in this forum
You cannot reply to topics in this forum
You cannot edit your posts in this forum
You cannot delete your posts in this forum
You cannot vote in polls in this forum
You cannot attach files in this forum
You cannot download files in this forum