Фриби и Бин / Freebie and the Bean (Ричард Раш / Richard Rush) [1974, США, боевик, драма, комедия, криминал, BDRip-AVC] VO (Эрнест Мусин) + Original (Eng) + Sub (Rus, Eng)

Reply to topic
 
Author
Message

Satyr ®

Gender: Unknown

Longevity: 15 years

Posts: 22031

Reputation: 56 [+] [-]

Satyr · Post 20-Jun-2023 20:35

[Quote] 

Фриби и Бин / Freebie and the BeanГод выпуска: 1974
Страна: США
Жанр: боевик, драма, комедия, криминал
Продолжительность: 01:53:09
Перевод: одноголосый закадровый, Эрнест Мусин
Субтитры: русские, английские
Режиссер: Ричард Раш / Richard Rush
В ролях: Алан Аркин, Джеймс Каан, Лоретта Суит, Джек Крушен, Майк Келлин, Пол Косло, Линда Марш, Джон Гарвуд, Алекс Рокко, Валери Харпер
Описание: Двое полицейских из Сан-Франциско, Фриби и Бин, сокрушают всё на своем пути, чтобы арестовать крутого гангстера Майерса. Для этого они готовы даже спасти его от мафии…-Доп. информация:
IMDb: 6.6/10
Kinopoisk: 6.7/10
Sample-Качество: BDRip-AVC
Формат: MKV
Видео: H.264, 1104x460 (2.39:1), 3984 kbps, 23.976 fps
Аудио №1: Russian, AC3, 2ch, 48 kHz, 224 kbps (Одноголосый, Эрнест Мусин)
Аудио №2: English, AC3, 2ch, 48 kHz, 224 kbps (Оригинал)
Субтитры №1: Russian, SRT, полные, Эрнест Мусин
Субтитры №2: English, SRT, полные
Субтитры №3: English, SRT, SDH-Здесь представлена обновлённая версия озвучки. Новое сведение сделано в июне 2023 года. Впервые в рунете.-

Сравнение с исходником

Blu-ray......................................................Рип



Mediainfo

General
Unique ID : 309713893299290307570832614814263800980 (0xE900B9E3A4420293DE399EAE6773F494)
Complete name : E:\Freebie and the Bean (1974) BDRip.mkv
Format : Matroska
Format version : Version 4
File size : 3.50 GiB
Duration : 1 h 53 min
Overall bit rate : 4 434 kb/s
Movie name : Freebie and the Bean (1974) BDRip
Encoded date : UTC 2023-06-16 20:35:27
Writing application : mkvmerge v77.0 ('Elemental') 64-bit
Writing library : libebml v1.4.4 + libmatroska v1.7.1
Cover : Yes
Attachments : Cover.jpg
Video
ID : 1
Format : AVC
Format/Info : Advanced Video Codec
Format profile : High@L4.1
Format settings : CABAC / 14 Ref Frames
Format settings, CABAC : Yes
Format settings, ReFrames : 14 frames
Codec ID : V_MPEG4/ISO/AVC
Duration : 1 h 53 min
Bit rate : 3 984 kb/s
Width : 1 104 pixels
Height : 460 pixels
Display aspect ratio : 2.40:1
Frame rate mode : Constant
Frame rate : 23.976 (24000/1001) FPS
Color space : YUV
Chroma subsampling : 4:2:0
Bit depth : 8 bits
Scan type : Progressive
Bits/(Pixel*Frame) : 0.327
Stream size : 3.15 GiB (90%)
Writing library : x264 core 164 r3107 a8b68eb
Encoding settings : cabac=1 / ref=14 / deblock=1:-3:-2 / analyse=0x3:0x133 / me=umh / subme=11 / psy=1 / psy_rd=1.10:0.05 / mixed_ref=1 / me_range=32 / chroma_me=1 / trellis=2 / 8x8dct=1 / cqm=0 / deadzone=21,11 / fast_pskip=0 / chroma_qp_offset=-3 / threads=14 / lookahead_threads=3 / sliced_threads=0 / nr=0 / decimate=1 / interlaced=0 / bluray_compat=0 / constrained_intra=0 / bframes=13 / b_pyramid=2 / b_adapt=2 / b_bias=0 / direct=1 / weightb=1 / open_gop=0 / weightp=2 / keyint=250 / keyint_min=23 / scenecut=40 / intra_refresh=0 / rc_lookahead=40 / rc=crf / mbtree=0 / crf=18.5 / qcomp=0.62 / qpmin=0 / qpmax=69 / qpstep=4 / vbv_maxrate=62500 / vbv_bufsize=78125 / crf_max=0.0 / nal_hrd=none / filler=0 / ip_ratio=1.40 / pb_ratio=1.25 / aq=2:0.90
Language : English
Default : Yes
Forced : No
Color range : Limited
Matrix coefficients : BT.709
Audio #1
ID : 2
Format : AC-3
Format/Info : Audio Coding 3
Commercial name : Dolby Digital
Codec ID : A_AC3
Duration : 1 h 53 min
Bit rate mode : Constant
Bit rate : 224 kb/s
Channel(s) : 2 channels
Channel layout : L R
Sampling rate : 48.0 kHz
Frame rate : 31.250 FPS (1536 SPF)
Bit depth : 16 bits
Compression mode : Lossy
Stream size : 181 MiB (5%)
Title : VO, Эрнест Мусин
Language : Russian
Service kind : Complete Main
Default : Yes
Forced : No
Audio #2
ID : 3
Format : AC-3
Format/Info : Audio Coding 3
Commercial name : Dolby Digital
Codec ID : A_AC3
Duration : 1 h 53 min
Bit rate mode : Constant
Bit rate : 224 kb/s
Channel(s) : 2 channels
Channel layout : L R
Sampling rate : 48.0 kHz
Frame rate : 31.250 FPS (1536 SPF)
Bit depth : 16 bits
Compression mode : Lossy
Stream size : 181 MiB (5%)
Title : Original
Language : English
Service kind : Complete Main
Default : No
Forced : No
Text #1
ID : 4
Format : UTF-8
Codec ID : S_TEXT/UTF8
Codec ID/Info : UTF-8 Plain Text
Duration : 1 h 50 min
Bit rate : 98 b/s
Count of elements : 1120
Stream size : 80.0 KiB (0%)
Title : Full, Эрнест Мусин
Language : Russian
Default : No
Forced : No
Text #2
ID : 5
Format : UTF-8
Codec ID : S_TEXT/UTF8
Codec ID/Info : UTF-8 Plain Text
Duration : 1 h 50 min
Bit rate : 85 b/s
Count of elements : 2156
Stream size : 69.7 KiB (0%)
Title : Full
Language : English
Default : No
Forced : No
Text #3
ID : 6
Format : UTF-8
Codec ID : S_TEXT/UTF8
Codec ID/Info : UTF-8 Plain Text
Duration : 1 h 52 min
Bit rate : 88 b/s
Count of elements : 2299
Stream size : 73.1 KiB (0%)
Title : SDH
Language : English
Default : No
Forced : No
Menu
00:00:00.000 : en:Chapter 1
00:03:01.390 : en:Chapter 2
00:05:15.232 : en:Chapter 3
00:06:00.735 : en:Chapter 4
00:08:16.621 : en:Chapter 5
00:12:33.962 : en:Chapter 6
00:17:00.937 : en:Chapter 7
00:20:09.125 : en:Chapter 8
00:26:50.526 : en:Chapter 9
00:31:01.735 : en:Chapter 10
00:34:42.330 : en:Chapter 11
00:38:52.288 : en:Chapter 12
00:41:49.841 : en:Chapter 13
00:46:10.226 : en:Chapter 14
00:51:32.214 : en:Chapter 15
00:54:08.370 : en:Chapter 16
00:59:20.724 : en:Chapter 17
01:04:57.685 : en:Chapter 18
01:10:05.410 : en:Chapter 19
01:14:05.191 : en:Chapter 20
01:18:10.644 : en:Chapter 21
01:20:58.520 : en:Chapter 22
01:24:13.173 : en:Chapter 23
01:28:30.138 : en:Chapter 24
01:32:34.215 : en:Chapter 25
01:37:15.413 : en:Chapter 26
01:41:03.891 : en:Chapter 27
01:46:40.394 : en:Chapter 28
01:51:55.918 : en:Chapter 29

x264 log

x264 [info]: frame I:1137 Avg QP:18.29 size: 76401
x264 [info]: frame P:32209 Avg QP:19.90 size: 34097
x264 [info]: frame B:129436 Avg QP:21.53 size: 16964
x264 [info]: consecutive B-frames: 1.3% 1.7% 6.3% 14.0% 14.7% 49.4% 5.3% 1.8% 1.5% 1.5% 1.0% 0.8% 0.3% 0.3%
x264 [info]: mb I I16..4: 1.0% 90.3% 8.7%
x264 [info]: mb P I16..4: 0.1% 14.7% 0.9% P16..4: 28.7% 37.5% 16.0% 1.4% 0.1% skip: 0.6%
x264 [info]: mb B I16..4: 0.0% 2.2% 0.1% B16..8: 40.2% 25.3% 6.1% direct: 8.1% skip:18.1% L0:47.6% L1:40.4% BI:12.0%
x264 [info]: 8x8 transform intra:94.1% inter:64.1%
x264 [info]: coded y,uvDC,uvAC intra: 98.8% 97.2% 87.9% inter: 49.1% 38.9% 11.8%
x264 [info]: i16 v,h,dc,p: 24% 25% 6% 44%
x264 [info]: i8 v,h,dc,ddl,ddr,vr,hd,vl,hu: 8% 8% 9% 10% 15% 13% 14% 11% 14%
x264 [info]: i4 v,h,dc,ddl,ddr,vr,hd,vl,hu: 9% 10% 2% 8% 16% 15% 17% 11% 13%
x264 [info]: i8c dc,h,v,p: 53% 15% 14% 18%
x264 [info]: Weighted P-Frames: Y:7.2% UV:3.8%
x264 [info]: ref P L0: 38.2% 12.0% 17.3% 6.7% 6.1% 4.2% 4.1% 2.1% 2.1% 1.6% 1.7% 1.3% 1.4% 1.2% 0.1% 0.0%
x264 [info]: ref B L0: 62.8% 12.8% 7.3% 4.0% 3.1% 2.6% 2.1% 1.3% 1.1% 1.0% 0.9% 0.6% 0.2%
x264 [info]: ref B L1: 92.5% 7.5%
x264 [info]: kb/s:3983.74
encoded 162782 frames, 28.15 fps, 3983.74 kb/s
-

Скриншоты


[Profile]  [PM] 
Display posts:    
Reply to topic

Current time is: 20-Jul 02:41

All times are UTC + 2



You cannot post new topics in this forum
You cannot reply to topics in this forum
You cannot edit your posts in this forum
You cannot delete your posts in this forum
You cannot vote in polls in this forum
You cannot attach files in this forum
You cannot download files in this forum