Рыжая Соня / Red Sonja (Ричард Флайшер / Richard Fleischer) [1985, США, Нидерланды, фэнтези, боевик, приключения, BDRip-AVC] [REMASTERED] AVO (Юрий Живов)

Reply to topic
 
Author
Message

Satyr ®

Gender: Unknown

Longevity: 15 years

Posts: 22045

Reputation: 56 [+] [-]

Satyr · Post 20-Jun-2023 20:35

[Quote] 

Рыжая Соня / Red Sonja
Страна: США, Нидерланды
Жанр: фэнтези, боевик, приключения
Год выпуска: 1985
Продолжительность: 01:29:06
Перевод: Авторский (одноголосый закадровый) Юрий Живов
Субтитры: нет
Режиссер: Ричард Флайшер / Richard Fleischer
В ролях: Арнольд Шварценеггер, Бриджитт Нильсен, Сэндал Бергман, Пол Л. Смит, Эрни Рейес мл., Рональд Лейси, Пэт Роуч, Терри Ричардс, Джанет Агрен, Донна Остербёр, Лара Назински, Ханс Майер, Франциска Романа Голуцци
Описание: Могущественная колдунья королева Гедрен похищает древний магический талисман, способный уничтожить весь мир. Легендарный герой Калидор и отважная воительница Рыжая Соня отправляются в полный опасностей поход к Хаблаку — столице королевы Гедрен, чтобы сразиться с силами зла и спасти Землю от разрушения.
Доп. информация: Дорожку с переводом синхронизировал ale_x2008
За дорожку благодарим - d_rocker

Релиз
Сэмпл: https://www.sendspace.com/file/9uony4
Качество видео: BDRip-AVC [Red.Sonja.1985.REMASTERED.1080p.BDREMUX.AVC-Нечипорук.mkv 23.79 GB]
Формат видео: MKV
Видео: MPEG4 Video (H264) 944x400 24fps Bit rate 2 999 kb/s
Аудио: Dolby AC3 48000Hz 2 ch (mono) 192kbps

MediaInfo

Рыжая Соня (Red Sonja) BDRip-AVC [by ale_x2008].mkvFormat                      : MatroskaFormat version              : Version 4File size                   : 2.03 GiBDuration                    : 1 h 29 minOverall bit rate            : 3 256 kb/sFrame rate                  : 24.000 FPSEncoded date                : 2023-06-20 15:29:40 UTCWriting application         : mkvmerge v71.0.0 ('Altitude') 64-bitWriting library             : libebml v1.4.4 + libmatroska v1.7.1
VideoID : 1Format : AVCFormat/Info : Advanced Video CodecFormat profile : High@L4.1Format settings : CABAC / 16 Ref FramesFormat settings, CABAC : YesFormat settings, Reference : 16 framesCodec ID : V_MPEG4/ISO/AVCDuration : 1 h 29 minBit rate : 3 062 kb/sWidth : 944 pixelsHeight : 400 pixelsDisplay aspect ratio : 2.35:1Frame rate mode : ConstantFrame rate : 24.000 FPSColor space : YUVChroma subsampling : 4:2:0Bit depth : 8 bitsScan type : ProgressiveBits/(Pixel*Frame) : 0.338Stream size : 1.91 GiB (94%)Writing library : x264 core 148 r2638 7599210Encoding settings : cabac=1 / ref=16 / deblock=1:-3:-3 / analyse=0x3:0x133 / me=umh / subme=9 / psy=1 / psy_rd=1.00:0.00 / mixed_ref=1 / me_range=32 / chroma_me=1 / trellis=2 / 8x8dct=1 / cqm=0 / deadzone=21,11 / fast_pskip=1 / chroma_qp_offset=-2 / threads=12 / lookahead_threads=3 / sliced_threads=0 / nr=0 / decimate=1 / interlaced=0 / bluray_compat=0 / constrained_intra=0 / bframes=10 / b_pyramid=0 / b_adapt=2 / b_bias=0 / direct=3 / weightb=1 / open_gop=0 / weightp=2 / keyint=250 / keyint_min=23 / scenecut=40 / intra_refresh=0 / rc=crf / mbtree=0 / crf=19.0 / qcomp=0.60 / qpmin=0 / qpmax=69 / qpstep=4 / ip_ratio=1.40 / pb_ratio=1.30 / aq=1:1.00Default : YesForced : No
AudioID : 2Format : AC-3Format/Info : Audio Coding 3Commercial name : Dolby DigitalCodec ID : A_AC3Duration : 1 h 29 minBit rate mode : ConstantBit rate : 192 kb/sChannel(s) : 2 channelsChannel layout : L RSampling rate : 48.0 kHzFrame rate : 31.250 FPS (1536 SPF)Compression mode : LossyStream size : 122 MiB (6%)Service kind : Complete MainDefault : YesForced : No

Скриншоты


[Profile]  [PM] 
Display posts:    
Reply to topic

Current time is: 25-Jul 05:45

All times are UTC + 2



You cannot post new topics in this forum
You cannot reply to topics in this forum
You cannot edit your posts in this forum
You cannot delete your posts in this forum
You cannot vote in polls in this forum
You cannot attach files in this forum
You cannot download files in this forum