Невероятный Бёрт Уандерстоун / The Incredible Burt Wonderstone (Дон Скардино / Don Scardino) [2013, США, комедия, DVD9] MVO + Sub Rus, Eng + Original Eng

Reply to topic
 
Author
Message

Faust ®

Gender: Unknown

Longevity: 12 years

Posts: 23187

Reputation: 0 [+] [-]

Faust · Post 21-Jun-2023 00:40

[Quote] 

Невероятный Бёрт Уандерстоун / The Incredible Burt Wonderstone
Страна: США
Студия: New Line Cinema
Жанр: комедия
Год выпуска: 2013
Продолжительность: 01:36:12
Перевод: Профессиональный (многоголосый, закадровый)
Субтитры: английские, болгарские, хорватские, эстонские, латышские, литовские, польские, русские, сербские, словенские, турецкие, украинские, русские (форс.), турецкие (форс.)
Оригинальная аудиодорожка: английская
Режиссер: Дон Скардино / Don Scardino
В ролях: Стив Карелл, Стив Бушеми, Оливия Уайлд, Джим Керри, Джеймс Гандольфини, Алан Аркин, Джей Мор, Михаэль Хербиг, Мэйсон Кук, Люк Ванек
Описание: Фильм рассказывает историю двух фокусников-конкурентов в Лас-Вегасе. Берт Уандерстоун однажды во время исполнения номера лишается напарника, и все оставшееся время пытается вернуть себе мотивацию и вернуться к любимому занятию.
Дополнительные материалы: Gag Reel
Меню: есть, статичное
Сэмпл
Тип релиза: DVD9
Контейнер: DVD-Video
Видео: PAL 16:9 (720x576) MPEG Video, 25,000 кадр/сек, 5730 Кбит/сек
Аудио: English (Dolby AC-3, 6 ch) 384 Кбит/сек, 48.0 КГц
Аудио 2: Polish (Dolby AC-3, 6 ch) 384 Кбит/сек, 48.0 КГц
Аудио 3: Russian (Dolby AC-3, 6 ch) 384 Кбит/сек, 48.0 КГц
Аудио 4: Turkish (Dolby AC-3, 2 ch) 192 Кбит/сек, 48.0 КГц

DVDInfo

Title: THE_INCREDIBLE_BURT_WONDERSTONE
Size: 4.88 Gb ( 5 113 274,00 KBytes ) - DVD-9
Enabled regions: 1, 2, 3, 4, 5, 6, 7, 8
VTS_01 :
Play Length: 01:36:12+00:00:00+00:03:58
Video: PAL 16:9 (720x576) VBR, Auto Letterboxed
Audio:
English (Dolby AC3, 6 ch)
Polish (Dolby AC3, 6 ch)
Russian (Dolby AC3, 6 ch)
Turkish (Dolby AC3, 2 ch)
English (Dolby AC3, 2 ch)
Subtitles:
English
Bulgarian
Hrvatski
Estonian
Latvian
Lithuanian
Polish
Russian
Serbian
Slovenian
Turkish
Ukrainian
Russian
Turkish
VTS_02 :
Play Length: 00:00:10
Video: PAL 16:9 (720x576) VBR, Auto Letterboxed
Audio:
Not specified (Dolby AC3, 6 ch)
Subtitles:
Not specified

MediaInfo

Общее
Полное имя : THE_INCREDIBLE_BURT_WONDERSTONE\VIDEO_TS\VTS_01_1.VOB
Формат : MPEG-PS
Размер файла : 1 024 Мбайт
Продолжительность : 19 м. 50 с.
Режим общего битрейта : Переменный
Общий поток : 7 217 Кбит/сек
Видео
Идентификатор : 224 (0xE0)
Формат : MPEG Video
Версия формата : Version 2
Профиль формата : Main@Main
Настройки формата : CustomMatrix / BVOP
Параметр BVOP формата : Да
Параметр матрицы формата : Выборочная
Параметр GOP формата : Variable
Структура изображения : Frame
Продолжительность : 19 м. 50 с.
Вид битрейта : Переменный
Битрейт : 5 730 Кбит/сек
Максимальный битрейт : 7 500 Кбит/сек
Ширина : 720 пикселей
Высота : 576 пикселей
Соотношение сторон : 16:9
Частота кадров : 25,000 кадров/сек
Стандарт вещания : PAL
Цветовое пространство : YUV
Субдискретизация насыщенности : 4:2:0
Битовая глубина : 8 бит
Тип развёртки : Чересстрочная
Порядок развёртки : Верхнее поле первое
Метод сжатия : С потерями
Бит/(Пиксели*Кадры) : 0.553
Временной код первого кадра : 00:59:58:00
Оригинал временного кода : Group of pictures header
GOP, открыто/закрыто : Закрыто
Размер потока : 813 Мбайт (79%)
Аудио #1
Идентификатор : 189 (0xBD)-128 (0x80)
Формат : AC-3
Формат/Информация : Audio Coding 3
Коммерческое название : Dolby Digital
Режим смешивания : DVD-Video
Продолжительность : 19 м. 49 с.
Вид битрейта : Постоянный
Битрейт : 384 Кбит/сек
Каналы : 6 каналов
Channel layout : L R C LFE Ls Rs
Частота : 48,0 КГц
Частота кадров : 31,250 кадров/сек (1536 SPF)
Метод сжатия : С потерями
Размер потока : 54,5 Мбайт (5%)
Service kind : Complete Main
Аудио #2
Идентификатор : 189 (0xBD)-129 (0x81)
Формат : AC-3
Формат/Информация : Audio Coding 3
Коммерческое название : Dolby Digital
Режим смешивания : DVD-Video
Продолжительность : 19 м. 49 с.
Вид битрейта : Постоянный
Битрейт : 384 Кбит/сек
Каналы : 6 каналов
Channel layout : L R C LFE Ls Rs
Частота : 48,0 КГц
Частота кадров : 31,250 кадров/сек (1536 SPF)
Метод сжатия : С потерями
Размер потока : 54,5 Мбайт (5%)
Service kind : Complete Main
Аудио #3
Идентификатор : 189 (0xBD)-130 (0x82)
Формат : AC-3
Формат/Информация : Audio Coding 3
Коммерческое название : Dolby Digital
Режим смешивания : DVD-Video
Продолжительность : 19 м. 49 с.
Вид битрейта : Постоянный
Битрейт : 384 Кбит/сек
Каналы : 6 каналов
Channel layout : L R C LFE Ls Rs
Частота : 48,0 КГц
Частота кадров : 31,250 кадров/сек (1536 SPF)
Метод сжатия : С потерями
Размер потока : 54,5 Мбайт (5%)
Service kind : Complete Main
Аудио #4
Идентификатор : 189 (0xBD)-131 (0x83)
Формат : AC-3
Формат/Информация : Audio Coding 3
Коммерческое название : Dolby Digital
Режим смешивания : DVD-Video
Продолжительность : 19 м. 50 с.
Вид битрейта : Постоянный
Битрейт : 192 Кбит/сек
Каналы : 2 канала
Channel layout : L R
Частота : 48,0 КГц
Частота кадров : 31,250 кадров/сек (1536 SPF)
Метод сжатия : С потерями
Размер потока : 27,2 Мбайт (3%)
Service kind : Complete Main
Текст #1
Идентификатор : 189 (0xBD)-32 (0x20)
Формат : RLE
Формат/Информация : Run-length encoding
Режим смешивания : DVD-Video
Текст #2
Идентификатор : 189 (0xBD)-33 (0x21)
Формат : RLE
Формат/Информация : Run-length encoding
Режим смешивания : DVD-Video
Текст #3
Идентификатор : 189 (0xBD)-34 (0x22)
Формат : RLE
Формат/Информация : Run-length encoding
Режим смешивания : DVD-Video
Текст #4
Идентификатор : 189 (0xBD)-35 (0x23)
Формат : RLE
Формат/Информация : Run-length encoding
Режим смешивания : DVD-Video
Текст #5
Идентификатор : 189 (0xBD)-36 (0x24)
Формат : RLE
Формат/Информация : Run-length encoding
Режим смешивания : DVD-Video
Текст #6
Идентификатор : 189 (0xBD)-37 (0x25)
Формат : RLE
Формат/Информация : Run-length encoding
Режим смешивания : DVD-Video
Текст #7
Идентификатор : 189 (0xBD)-38 (0x26)
Формат : RLE
Формат/Информация : Run-length encoding
Режим смешивания : DVD-Video
Текст #8
Идентификатор : 189 (0xBD)-39 (0x27)
Формат : RLE
Формат/Информация : Run-length encoding
Режим смешивания : DVD-Video
Текст #9
Идентификатор : 189 (0xBD)-40 (0x28)
Формат : RLE
Формат/Информация : Run-length encoding
Режим смешивания : DVD-Video
Текст #10
Идентификатор : 189 (0xBD)-41 (0x29)
Формат : RLE
Формат/Информация : Run-length encoding
Режим смешивания : DVD-Video
Текст #11
Идентификатор : 189 (0xBD)-42 (0x2A)
Формат : RLE
Формат/Информация : Run-length encoding
Режим смешивания : DVD-Video
Текст #12
Идентификатор : 189 (0xBD)-43 (0x2B)
Формат : RLE
Формат/Информация : Run-length encoding
Режим смешивания : DVD-Video

Скриншоты меню

Скриншоты

-Большое спасибо AKIM2B за предоставленный DVD-
[Profile]  [PM] 
Display posts:    
Reply to topic

Current time is: 20-Jul 02:40

All times are UTC + 2



You cannot post new topics in this forum
You cannot reply to topics in this forum
You cannot edit your posts in this forum
You cannot delete your posts in this forum
You cannot vote in polls in this forum
You cannot attach files in this forum
You cannot download files in this forum