Макс Клауд / The Intergalactic Adventures of Max Cloud / Max Cloud (Мартин Оуэн / Martin Owen) [2020, Великобритания, комедия, фантастика, приключения, BDRip 1080p] VO (Дмитрий Есарев) + Original Eng + Sub (Eng, Tur)

Reply to topic
 
Author
Message

Faust ®

Gender: Unknown

Longevity: 12 years

Posts: 23187

Reputation: 0 [+] [-]

Faust · Post 21-Jun-2023 00:40

[Quote] 

Макс Клауд / The Intergalactic Adventures of Max Cloud / Max Cloud (2020)- Страна: Великобритания
Год выпуска: 2020
Студия: Goldfinch Pictures
Жанр: комедия, фантастика, приключения, боевик
Слоган: «Choose your player»
Продолжительность: 01:28:45
Перевод: Одноголосый закадровый Дмитрий Есарев (2021) по собственному переводу, без цензуры
Оригинальная аудиодорожка: английская
Субтитры: английские full & SDH, турецкие full
Навигация по главам: присутствует-Режиссер: Мартин Оуэн / Martin Owen
Сценарий: Салли Коллетт / Sally Collett, Мартин Оуэн / Martin Owen
В ролях:
  • Скотт Эдкинс / Scott Adkins ... Max Cloud
  • Томми Флэнаган / Tommy Flanagan ... Brock Donnelly
  • Лашана Линч / Lashana Lynch ... Shee
  • Эллиотт Джеймс Лангридж / Elliott James Langridge ... Jake
  • Изабелль Аллен / Isabelle Allen ... Sarah
  • Джон Ханна / John Hannah ... Revengor
  • Франц Драмех / Franz Drameh ... Cowboy
  • Салли Коллетт / Sally Collett ... Rexy
  • Джейсон Мацца / Jason Maza ... Space Witch
  • Сэм Хэзелдайн / Sam Hazeldine ... Tony
  • Энди Ошо / Andi Osho ... Sofia

kinopoisk.ru/film/1225878/
imdb.com/title/tt9472532/
Official Trailer youtube.com/watch?v=ZqQZRSploe0-Сюжет: Бруклин, 1990 год. Играя в видеоигру о приключениях межгалактического героя Макса Клауда, девушка-подросток Сара встречает нового персонажа - Космическую Ведьму, которая открывает портал и переносит Сару в мир игры. Теперь она Джейк, помощник главного героя, и рассчитывать может только на помощь приятеля Ковбоя, который должен во что бы то ни стало завершить игру. А иначе Сара останется 16-битным персонажем навсегда.
Доп. информация: столь низкая оценка не оправдана. Тут высмеивают клише и стереотипы. Оцените фильм сами.-Тип релиза: BDRip 1080p | The.Intergalactic.Adventures.of.Max.Cloud.2020.1080p.BluRay.DUAL.DTS.x264-MTeam
Контейнер: MKV
Видео: [8 bits] AVC/h.264 (High@L4.1), 1920x804 [2.40:1], 23.976 fps, 12 Mbps, 0.325 Bits/(Pixel*Frame)
Аудио #1: Русский одноголосый закадровый: AC3, 48 kHz, 16 bit, 5.1, 448 kbps | Дмитрий Есарев (2021) по собственному переводу, без цензуры
Аудио #2: Английский оригинал: DTS, 48 kHz, 24 bits, 5.1, 1509 kbps
Формат субтитров: softsub (SRT/PGS) | Доп. информация о субтитрах: английские full (.SRT) & SDH (.PGS), турецкие full (.SRT)
Меню: Обозначенные главы / chapters

MediaInfo

General
Unique ID                   : 217724833786641132419681708012131734831 (0xA3CC47178537F2AB8BA0D9F7B3D2552F)
Complete name               : ***\Max.Cloud[Martin.Owen][2020]BDRip.1080p[Yesarev].mkv
Format                      : Matroska
Format version              : Version 4 / Version 2
File size                   : 8.84 GiB
Duration                    : 1h 28mn
Overall bit rate            : 14.3 Mbps
Movie name                  : Макс Клауд / The Intergalactic Adventures of Max Cloud / Max Cloud (2020) BDRip 1080p | AVO Дмитрий Есарев + Eng
Encoded date                : UTC 2023-05-25 19:18:18
Writing application         : mkvmerge v8.2.0 ('World of Adventure') 64bit
Writing library             : libebml v1.3.1 + libmatroska v1.4.2
Attachements                : Max.Cloud.2020.BDRip.1080p.Yesarev.mkv.txt / The.Intergalactic.Adventures.of.Max.Cloud.2020.1080p.BluRay.REMUX.AVC.DTS-HD.MA.5.1-FGT.mkv.txt / The.Intergalactic.Adventures.of.Max.Cloud.2020.720p.BluRay.DUAL.DTS.x264-MTeam.mkv.txt / cover.jpg / The.Intergalactic.Adventures.of.Max.Cloud.2020.1080p.BluRay.DUAL.DTS.x264-MTeam.mkv.txt
DURATION                    : 01:28:44.320000000
NUMBER_OF_FRAMES            : 499155
NUMBER_OF_BYTES             : 1004299860
_STATISTICS_WRITING_APP     : mkvmerge v8.2.0 ('World of Adventure') 64bit
_STATISTICS_WRITING_DATE_UT : 2023-05-25 19:18:18
_STATISTICS_TAGS            : BPS DURATION NUMBER_OF_FRAMES NUMBER_OF_BYTES
Video
ID                          : 1
Format                      : AVC
Format/Info                 : Advanced Video Codec
Format profile              : High@L4.1
Format settings, CABAC      : Yes
Format settings, ReFrames   : 5 frames
Codec ID                    : V_MPEG4/ISO/AVC
Duration                    : 1h 28mn
Bit rate                    : 12.0 Mbps
Width                       : 1 920 pixels
Height                      : 804 pixels
Display aspect ratio        : 2.40:1
Frame rate mode             : Constant
Frame rate                  : 23.976 fps
Color space                 : YUV
Chroma subsampling          : 4:2:0
Bit depth                   : 8 bits
Scan type                   : Progressive
Bits/(Pixel*Frame)          : 0.325
Stream size                 : 7.46 GiB (84%)
Title                       : The.Intergalactic.Adventures.of.Max.Cloud.2020.1080p.BluRay.DUAL.DTS.x264-MTeam
Writing library             : x264 core 157 r2938 2b00a84 TnP@MTeam Mod
Encoding settings           : cabac=1 / ref=5 / deblock=1:-3:-3 / analyse=0x3:0x133 / me=umh / subme=10 / psy=1 / psy_rd=1.05:0.00 / mixed_ref=1 / me_range=32 / chroma_me=1 / trellis=2 / 8x8dct=1 / cqm=0 / deadzone=21,11 / fast_pskip=0 / chroma_qp_offset=-2 / threads=12 / lookahead_threads=2 / sliced_threads=0 / nr=0 / decimate=0 / interlaced=0 / bluray_compat=0 / constrained_intra=0 / bframes=8 / b_pyramid=2 / b_adapt=2 / b_bias=0 / direct=3 / weightb=1 / open_gop=0 / weightp=2 / keyint=250 / keyint_min=24 / scenecut=40 / intra_refresh=0 / rc_lookahead=250 / rc=crf / mbtree=0 / crf=16.8 / qcomp=0.60 / qpmin=0 / qpmax=69 / qpstep=4 / vbv_maxrate=62500 / vbv_bufsize=78125 / crf_max=0.0 / nal_hrd=none / filler=0 / ip_ratio=1.30 / pb_ratio=1.20 / aq=3:0.80
Language                    : English
Default                     : Yes
Forced                      : No
Color range                 : Limited
Color primaries             : BT.709
Matrix coefficients         : BT.709
DURATION                    : 01:28:45.320000000
NUMBER_OF_FRAMES            : 127680
NUMBER_OF_BYTES             : 8179785184
_STATISTICS_WRITING_APP     : mkvmerge v8.2.0 ('World of Adventure') 64bit
_STATISTICS_WRITING_DATE_UT : 2023-05-25 19:18:18
_STATISTICS_TAGS            : BPS DURATION NUMBER_OF_FRAMES NUMBER_OF_BYTES
Audio #1
ID                          : 2
Format                      : AC-3
Format/Info                 : Audio Coding 3
Mode extension              : CM (complete main)
Format settings, Endianness : Big
Codec ID                    : A_AC3
Duration                    : 1h 28mn
Bit rate mode               : Constant
Bit rate                    : 448 Kbps
Channel(s)                  : 6 channels
Channel positions           : Front: L C R, Side: L R, LFE
Sampling rate               : 48.0 KHz
Compression mode            : Lossy
Stream size                 : 284 MiB (3%)
Title                       : .ac3 DD 5.1 448 kbps 48 kHz | VO Дмитрий Есарев [2021] по собственному переводу, без цензуры
Language                    : Russian
Default                     : Yes
Forced                      : No
Audio #2
ID                          : 3
Format                      : DTS
Format/Info                 : Digital Theater Systems
Mode                        : 16
Format settings, Endianness : Big
Codec ID                    : A_DTS
Duration                    : 1h 28mn
Bit rate mode               : Constant
Bit rate                    : 1 509 Kbps
Channel(s)                  : 6 channels
Channel positions           : Front: L C R, Side: L R, LFE
Sampling rate               : 48.0 KHz
Bit depth                   : 24 bits
Compression mode            : Lossy
Stream size                 : 958 MiB (11%)
Title                       : .dts 5.1 1509 kbps 48 kHz 24 bits
Language                    : English
Default                     : No
Forced                      : No
Text #1
ID                          : 4
Format                      : UTF-8
Codec ID                    : S_TEXT/UTF8
Codec ID/Info               : UTF-8 Plain Text
Title                       : .srt [OCR] English full sub
Language                    : English
Default                     : No
Forced                      : No
DURATION                    : 01:27:41.006000000
NUMBER_OF_FRAMES            : 2786
NUMBER_OF_BYTES             : 12527692
_STATISTICS_WRITING_APP     : mkvmerge v8.2.0 ('World of Adventure') 64bit
_STATISTICS_WRITING_DATE_UT : 2023-05-25 19:18:18
_STATISTICS_TAGS            : BPS DURATION NUMBER_OF_FRAMES NUMBER_OF_BYTES
Text #2
ID                          : 5
Format                      : PGS
Muxing mode                 : zlib
Codec ID                    : S_HDMV/PGS
Codec ID/Info               : Picture based subtitle format used on BDs/HD-DVDs
Title                       : PGS English SDH
Language                    : English
Default                     : No
Forced                      : No
Text #3
ID                          : 6
Format                      : UTF-8
Codec ID                    : S_TEXT/UTF8
Codec ID/Info               : UTF-8 Plain Text
Title                       : .srt Turskish full sub
Language                    : Turkish
Default                     : No
Forced                      : No
Menu
00:00:00.000                : en:Chapter 01
00:06:05.615                : en:Chapter 02
00:11:57.675                : en:Chapter 03
00:23:49.302                : en:Chapter 04
00:32:47.590                : en:Chapter 05
00:41:41.790                : en:Chapter 06
00:50:15.262                : en:Chapter 07
01:00:42.221                : en:Chapter 08
01:12:23.756                : en:Chapter 09
01:23:36.386                : en:Chapter 10

The.Intergalactic.Adventures.of.Max.Cloud.2020.1080p.BluRay.DUAL.DTS.x264-MTeam

General
Unique ID                   : 37737881841199621443337130041401533133 (0x1C640D3A16014860EB76D8EACC05E2CD)
Complete name               : ***\The.Intergalactic.Adventures.of.Max.Cloud.2020.1080p.BluRay.DUAL.DTS.x264-MTeam.mkv
Format                      : Matroska
Format version              : Version 4 / Version 2
File size                   : 8.67 GiB
Duration                    : 1h 28mn
Overall bit rate            : 14.0 Mbps
Encoded date                : UTC 2023-02-15 20:29:42
Writing application         : mkvmerge v48.0.0 ('Fortress Around Your Heart') 64-bit
Writing library             : libebml v1.4.0 + libmatroska v1.6.0
Attachements                : small_cover.jpg / small_cover_land.jpg / cover.jpg / cover_land.jpg
DURATION                    : 01:26:53.129000000
NUMBER_OF_FRAMES            : 1051
NUMBER_OF_BYTES             : 36551
_STATISTICS_WRITING_APP     : mkvmerge v48.0.0 ('Fortress Around Your Heart') 64-bit
_STATISTICS_WRITING_DATE_UT : 2023-02-15 20:29:42
_STATISTICS_TAGS            : BPS DURATION NUMBER_OF_FRAMES NUMBER_OF_BYTES
Video
ID                          : 1
Format                      : AVC
Format/Info                 : Advanced Video Codec
Format profile              : High@L4.1
Format settings, CABAC      : Yes
Format settings, ReFrames   : 5 frames
Codec ID                    : V_MPEG4/ISO/AVC
Duration                    : 1h 28mn
Bit rate                    : 12.0 Mbps
Width                       : 1 920 pixels
Height                      : 804 pixels
Display aspect ratio        : 2.40:1
Frame rate mode             : Constant
Frame rate                  : 23.976 fps
Color space                 : YUV
Chroma subsampling          : 4:2:0
Bit depth                   : 8 bits
Scan type                   : Progressive
Bits/(Pixel*Frame)          : 0.325
Stream size                 : 7.45 GiB (86%)
Writing library             : x264 core 157 r2938 2b00a84 TnP@MTeam Mod
Encoding settings           : cabac=1 / ref=5 / deblock=1:-3:-3 / analyse=0x3:0x133 / me=umh / subme=10 / psy=1 / psy_rd=1.05:0.00 / mixed_ref=1 / me_range=32 / chroma_me=1 / trellis=2 / 8x8dct=1 / cqm=0 / deadzone=21,11 / fast_pskip=0 / chroma_qp_offset=-2 / threads=12 / lookahead_threads=2 / sliced_threads=0 / nr=0 / decimate=0 / interlaced=0 / bluray_compat=0 / constrained_intra=0 / bframes=8 / b_pyramid=2 / b_adapt=2 / b_bias=0 / direct=3 / weightb=1 / open_gop=0 / weightp=2 / keyint=250 / keyint_min=24 / scenecut=40 / intra_refresh=0 / rc_lookahead=250 / rc=crf / mbtree=0 / crf=16.8 / qcomp=0.60 / qpmin=0 / qpmax=69 / qpstep=4 / vbv_maxrate=62500 / vbv_bufsize=78125 / crf_max=0.0 / nal_hrd=none / filler=0 / ip_ratio=1.30 / pb_ratio=1.20 / aq=3:0.80
Language                    : English
Default                     : Yes
Forced                      : No
Color range                 : Limited
Color primaries             : BT.709
Matrix coefficients         : BT.709
DURATION                    : 01:28:45.320000000
NUMBER_OF_FRAMES            : 127680
NUMBER_OF_BYTES             : 8179785184
_STATISTICS_WRITING_APP     : mkvmerge v48.0.0 ('Fortress Around Your Heart') 64-bit
_STATISTICS_WRITING_DATE_UT : 2023-02-15 20:29:42
_STATISTICS_TAGS            : BPS DURATION NUMBER_OF_FRAMES NUMBER_OF_BYTES
Audio #1
ID                          : 2
Format                      : AC-3
Format/Info                 : Audio Coding 3
Mode extension              : CM (complete main)
Format settings, Endianness : Big
Codec ID                    : A_AC3
Duration                    : 1h 28mn
Bit rate mode               : Constant
Bit rate                    : 192 Kbps
Channel(s)                  : 2 channels
Channel positions           : Front: L R
Sampling rate               : 48.0 KHz
Compression mode            : Lossy
Stream size                 : 122 MiB (1%)
Language                    : Turkish
Default                     : No
Forced                      : No
Audio #2
ID                          : 4
Format                      : DTS
Format/Info                 : Digital Theater Systems
Mode                        : 16
Format settings, Endianness : Big
Codec ID                    : A_DTS
Duration                    : 1h 28mn
Bit rate mode               : Constant
Bit rate                    : 1 509 Kbps
Channel(s)                  : 6 channels
Channel positions           : Front: L C R, Side: L R, LFE
Sampling rate               : 48.0 KHz
Bit depth                   : 16 bits
Compression mode            : Lossy
Stream size                 : 958 MiB (11%)
Language                    : English
Default                     : Yes
Forced                      : No
Text #1
ID                          : 3
Format                      : UTF-8
Codec ID                    : S_TEXT/UTF8
Codec ID/Info               : UTF-8 Plain Text
Language                    : Turkish
Default                     : No
Forced                      : No
Text #2
ID                          : 5
Format                      : UTF-8
Codec ID                    : S_TEXT/UTF8
Codec ID/Info               : UTF-8 Plain Text
Language                    : English
Default                     : Yes
Forced                      : No
Menu
00:00:00.000                : en:Chapter 01
00:06:05.657                : en:Chapter 02
00:11:57.383                : en:Chapter 03
00:23:49.345                : en:Chapter 04
00:32:47.632                : en:Chapter 05
00:41:41.833                : en:Chapter 06
00:50:15.304                : en:Chapter 07
01:00:42.264                : en:Chapter 08
01:12:23.798                : en:Chapter 09
01:23:36.720                : en:Chapter 10

The.Intergalactic.Adventures.of.Max.Cloud.2020.720p.BluRay.DUAL.DTS.x264-MTeam

General
Unique ID                   : 98165547193759148540566901757791615256 (0x49D9FF26BB88D6E21835130AF226B918)
Complete name               : ***\The.Intergalactic.Adventures.of.Max.Cloud.2020.720p.BluRay.DUAL.DTS.x264-MTeam.mkv
Format                      : Matroska
Format version              : Version 4 / Version 2
File size                   : 3.57 GiB
Duration                    : 1h 28mn
Overall bit rate            : 5 762 Kbps
Encoded date                : UTC 2023-02-16 20:05:37
Writing application         : mkvmerge v48.0.0 ('Fortress Around Your Heart') 64-bit
Writing library             : libebml v1.4.0 + libmatroska v1.6.0
Attachements                : small_cover.jpg / small_cover_land.jpg / cover.jpg / cover_land.jpg
DURATION                    : 01:26:53.129000000
NUMBER_OF_FRAMES            : 1051
NUMBER_OF_BYTES             : 36551
_STATISTICS_WRITING_APP     : mkvmerge v48.0.0 ('Fortress Around Your Heart') 64-bit
_STATISTICS_WRITING_DATE_UT : 2023-02-16 20:05:37
_STATISTICS_TAGS            : BPS DURATION NUMBER_OF_FRAMES NUMBER_OF_BYTES
Video
ID                          : 1
Format                      : AVC
Format/Info                 : Advanced Video Codec
Format profile              : High@L4.1
Format settings, CABAC      : Yes
Format settings, ReFrames   : 12 frames
Codec ID                    : V_MPEG4/ISO/AVC
Duration                    : 1h 28mn
Bit rate                    : 3 946 Kbps
Width                       : 1 280 pixels
Height                      : 536 pixels
Display aspect ratio        : 2.40:1
Frame rate mode             : Constant
Frame rate                  : 23.976 fps
Color space                 : YUV
Chroma subsampling          : 4:2:0
Bit depth                   : 8 bits
Scan type                   : Progressive
Bits/(Pixel*Frame)          : 0.240
Stream size                 : 2.45 GiB (68%)
Writing library             : x264 core 157 r2938 2b00a84 TnP@MTeam Mod
Encoding settings           : cabac=1 / ref=12 / deblock=1:-3:-3 / analyse=0x3:0x133 / me=umh / subme=10 / psy=1 / psy_rd=1.05:0.00 / mixed_ref=1 / me_range=32 / chroma_me=1 / trellis=2 / 8x8dct=1 / cqm=0 / deadzone=21,11 / fast_pskip=0 / chroma_qp_offset=-2 / threads=12 / lookahead_threads=2 / sliced_threads=0 / nr=0 / decimate=0 / interlaced=0 / bluray_compat=0 / constrained_intra=0 / bframes=8 / b_pyramid=2 / b_adapt=2 / b_bias=0 / direct=3 / weightb=1 / open_gop=0 / weightp=2 / keyint=250 / keyint_min=24 / scenecut=40 / intra_refresh=0 / rc_lookahead=250 / rc=crf / mbtree=0 / crf=16.8 / qcomp=0.60 / qpmin=0 / qpmax=69 / qpstep=4 / vbv_maxrate=62500 / vbv_bufsize=78125 / crf_max=0.0 / nal_hrd=none / filler=0 / ip_ratio=1.30 / pb_ratio=1.20 / aq=3:0.80
Language                    : English
Default                     : Yes
Forced                      : No
Color range                 : Limited
Color primaries             : BT.709
Matrix coefficients         : BT.709
DURATION                    : 01:28:45.320000000
NUMBER_OF_FRAMES            : 127680
NUMBER_OF_BYTES             : 2701218482
_STATISTICS_WRITING_APP     : mkvmerge v48.0.0 ('Fortress Around Your Heart') 64-bit
_STATISTICS_WRITING_DATE_UT : 2023-02-16 20:05:37
_STATISTICS_TAGS            : BPS DURATION NUMBER_OF_FRAMES NUMBER_OF_BYTES
Audio #1
ID                          : 2
Format                      : AC-3
Format/Info                 : Audio Coding 3
Mode extension              : CM (complete main)
Format settings, Endianness : Big
Codec ID                    : A_AC3
Duration                    : 1h 28mn
Bit rate mode               : Constant
Bit rate                    : 192 Kbps
Channel(s)                  : 2 channels
Channel positions           : Front: L R
Sampling rate               : 48.0 KHz
Compression mode            : Lossy
Stream size                 : 122 MiB (3%)
Language                    : Turkish
Default                     : No
Forced                      : No
Audio #2
ID                          : 4
Format                      : DTS
Format/Info                 : Digital Theater Systems
Mode                        : 16
Format settings, Endianness : Big
Codec ID                    : A_DTS
Duration                    : 1h 28mn
Bit rate mode               : Constant
Bit rate                    : 1 509 Kbps
Channel(s)                  : 6 channels
Channel positions           : Front: L C R, Side: L R, LFE
Sampling rate               : 48.0 KHz
Bit depth                   : 24 bits
Compression mode            : Lossy
Stream size                 : 958 MiB (26%)
Language                    : English
Default                     : Yes
Forced                      : No
Text #1
ID                          : 3
Format                      : UTF-8
Codec ID                    : S_TEXT/UTF8
Codec ID/Info               : UTF-8 Plain Text
Language                    : Turkish
Default                     : No
Forced                      : No
Text #2
ID                          : 5
Format                      : UTF-8
Codec ID                    : S_TEXT/UTF8
Codec ID/Info               : UTF-8 Plain Text
Title                       : SRT
Language                    : English
Default                     : Yes
Forced                      : No
Menu
00:00:00.000                : en:Chapter 01
00:06:05.657                : en:Chapter 02
00:11:57.383                : en:Chapter 03
00:23:49.345                : en:Chapter 04
00:32:47.632                : en:Chapter 05
00:41:41.833                : en:Chapter 06
00:50:15.304                : en:Chapter 07
01:00:42.264                : en:Chapter 08
01:12:23.798                : en:Chapter 09
01:23:36.720                : en:Chapter 10

Скриншоты

imageban.ru

https://i2.imageban.ru/out/2023/06/19/c1d26e058077cceffaa7a55fa2fa5016.png
https://i3.imageban.ru/out/2023/06/19/14466074b9fe4cfd612c1b5dfd8099c6.png
https://i5.imageban.ru/out/2023/06/19/01da84d0bf02a1c70c0639acd71d0b45.png
https://i1.imageban.ru/out/2023/06/19/d40393fc2c1f2a8cc82f6f31d9b4da1f.png
https://i2.imageban.ru/out/2023/06/19/2a362a141c003653aa778cb5951e5f5b.png
https://i4.imageban.ru/out/2023/06/19/18528cdb96cc0c8dbdc5f9b8d98e2c07.png
https://i7.imageban.ru/out/2023/06/19/66d49e7e50f6247585e23d9fceb33e43.png
https://i6.imageban.ru/out/2023/06/19/64db383ba8e4006149424682203cc473.png
https://i2.imageban.ru/out/2023/06/19/7ed395c0ee6004b085f650fcd17f85e4.png
https://i2.imageban.ru/out/2023/06/19/ae0dfaf151ae0aaac3370eb329ec7167.png
https://i5.imageban.ru/out/2023/06/19/292590dc371b438b882c166836da4712.png
https://i2.imageban.ru/out/2023/06/19/aa1894f174f93fab7b373250e42159ae.png
https://i2.imageban.ru/out/2023/06/19/d031187a1a34a74cfaa24b9521e69c0f.png
https://i7.imageban.ru/out/2023/06/19/f9307dcda1a779e71f33ee7c9a96b485.png
https://i1.imageban.ru/out/2023/06/19/f9cd05dd5e02929e86f81dcfa0caee59.png
https://i2.imageban.ru/out/2023/06/19/b2e1d7e1fcc06ce72608991f17d72266.png
Доп. информацияПеревёл и озвучил Дмитрий Есарев, работа со звуком - kkrese.
Единоличный заказ: podorov92- - Важно:
Сидировать продолжительное время по техническим причинам возможности нет.
Заброшенная раздача канет в лету.
Не позволяй материалу сгинуть.
[Profile]  [PM] 
Display posts:    
Reply to topic

Current time is: 20-Jul 02:39

All times are UTC + 2



You cannot post new topics in this forum
You cannot reply to topics in this forum
You cannot edit your posts in this forum
You cannot delete your posts in this forum
You cannot vote in polls in this forum
You cannot attach files in this forum
You cannot download files in this forum