На пределе / Nightride (Стивен Финглтон / Stephen Fingleton) [2021, Великобритания, Франция, США, триллер, драма, криминал, BDRemux 1080p] Dub (Позитив, Кинопоиск HD) + Sub Eng + Original Eng

Reply to topic
 
Author
Message

Faust ®

Gender: Unknown

Longevity: 12 years

Posts: 23202

Reputation: 0 [+] [-]

Faust · Post 21-Jun-2023 04:45

[Quote] 

На пределе
Nightride

Страна: Великобритания, Франция, США
Жанр: Триллер, драма, криминал
Год выпуска: 2021
Продолжительность: 01:38:01
Перевод: Профессиональный (дублированный) Позитив, Кинопоиск HD
Субтитры: Aнглийские
Оригинальная аудиодорожка: Aнглийский
Режиссер: Стивен Финглтон / Stephen Fingleton
В ролях: Мо Данфорд, Жуана Рибейру, Герард Джордан, Киаран Флинн, Стивен Ри, Джон Треверс, Эндрю Симпсон, Элли О’Халлоран, Аарон МакКаскер, Десмонд Иствуд
Описание: Торговец наркотиками Бадж принимает решение уйти из бизнеса. Но перед этим он собирается провернуть самую большую сделку своей жизни всего за одну ночь. Его план продуман до мелочей, но от одной ошибки всё может рухнуть. Неожиданный роковой сбой влечет за собой другой, и на кону оказывается жизнь самого Баджа…

Тип релиза: BDRemux 1080p
Контейнер: MKV
Видео: MPEG-2, 1080p, 1920:1080 (16:9), 17982 kbps, 24.000 fps
Аудио 1: E-AC3, 6 ch, 48 kHz, 448 kbps Русский Dub Позитив, Кинопоиск HD
Аудио 2: DTS-HD MA, 6 ch, 48 kHz, 2638 kbps, 24-bit (DTS Core 6 ch, 48 kHz, 1509 kbps, 24-bit) Английский
Формат субтитров: SRT

MediaInfo

GeneralUnique ID                                : 228035177194196026697948065684881106454 (0xAB8DFA44DBBD46AADB6CF99E52976616)Complete name                            : G:\Nightride.2021.REMUX.mkvFormat                                   : MatroskaFormat version                           : Version 4File size                                : 14.4 GiBDuration                                 : 1 h 38 minOverall bit rate mode                    : VariableOverall bit rate                         : 21.1 Mb/sEncoded date                             : UTC 2023-06-20 12:56:47Writing application                      : mkvmerge v20.0.0 ('I Am The Sun') 64-bitWriting library                          : libebml v1.3.5 + libmatroska v1.4.8
VideoID : 1Format : MPEG VideoFormat version : Version 2Format profile : Main@HighFormat settings : CustomMatrix / BVOPFormat settings, BVOP : YesFormat settings, Matrix : CustomFormat settings, GOP : M=3, N=15Codec ID : V_MPEG2Codec ID/Info : MPEG 1 or 2 VideoDuration : 1 h 38 minBit rate mode : VariableBit rate : 18.0 Mb/sMaximum bit rate : 25.0 Mb/sWidth : 1 920 pixelsHeight : 1 080 pixelsDisplay aspect ratio : 16:9Frame rate mode : ConstantFrame rate : 24.000 FPSColor space : YUVChroma subsampling : 4:2:0Bit depth : 8 bitsScan type : ProgressiveCompression mode : LossyBits/(Pixel*Frame) : 0.361Time code of first frame : 00:00:00:00Time code source : Group of pictures headerGOP, Open/Closed : ClosedStream size : 12.3 GiB (85%)Language : EnglishDefault : YesForced : No
Audio #1ID : 2Format : E-AC-3Format/Info : Enhanced AC-3Commercial name : Dolby Digital PlusCodec ID : A_EAC3Duration : 1 h 37 minBit rate mode : ConstantBit rate : 448 kb/sChannel(s) : 6 channelsChannel layout : L R C LFE Ls RsSampling rate : 48.0 kHzFrame rate : 31.250 FPS (1536 SPF)Compression mode : LossyStream size : 314 MiB (2%)Title : Dub Позитив, Кинопоиск HDLanguage : RussianService kind : Complete MainDefault : YesForced : No
Audio #2ID : 3Format : DTS XLLFormat/Info : Digital Theater SystemsCommercial name : DTS-HD Master AudioCodec ID : A_DTSDuration : 1 h 38 minBit rate mode : VariableBit rate : 2 638 kb/sChannel(s) : 6 channelsChannel layout : C L R Ls Rs LFESampling rate : 48.0 kHzFrame rate : 93.750 FPS (512 SPF)Bit depth : 24 bitsCompression mode : LosslessStream size : 1.81 GiB (13%)Language : EnglishDefault : NoForced : No
TextID : 4Format : UTF-8Codec ID : S_TEXT/UTF8Codec ID/Info : UTF-8 Plain TextDuration : 1 h 35 minBit rate : 63 b/sCount of elements : 1459Stream size : 44.0 KiB (0%)Language : EnglishDefault : NoForced : No
Menu00:00:00.000 : en:Chapter 100:12:56.000 : en:Chapter 200:26:22.000 : en:Chapter 300:39:55.000 : en:Chapter 400:54:10.000 : en:Chapter 501:08:35.000 : en:Chapter 601:22:41.000 : en:Chapter 701:34:36.000 : en:Chapter 8

Скриншоты


[Profile]  [PM] 
Display posts:    
Reply to topic

Current time is: 21-Jul 22:24

All times are UTC + 2



You cannot post new topics in this forum
You cannot reply to topics in this forum
You cannot edit your posts in this forum
You cannot delete your posts in this forum
You cannot vote in polls in this forum
You cannot attach files in this forum
You cannot download files in this forum