Моя вина / Culpa mía / My Fault (Доминго Гонсалес / Domingo Gonzalez) [2023, Испания, драма, WEB-DL 1080p] MVO (HDRezka Studio) + Sub (Rus, Ukr, Eng etc.) + Original Spa

Reply to topic
 
Author
Message

Faust ®

Gender: Unknown

Longevity: 12 years

Posts: 23187

Reputation: 0 [+] [-]

Faust · Post 21-Jun-2023 04:45

[Quote] 

Моя вина
Culpa mía / My Fault

Страна: Испания
Жанр: Драма
Год выпуска: 2023
Продолжительность: 01:57:37
Перевод: Профессиональный (многоголосый закадровый) HDRezka Studio
Субтитры: Русские (forced, full), украинские, английские, французские, немецкие, испанские, финские, шведские, датские, норвежские, китайские, корейские, японские
Оригинальная аудиодорожка: Испанский
Режиссер: Доминго Гонсалес / Domingo Gonzalez
В ролях: Фран Беренгер, Марта Асас, Иван Массаге, Ив Райан, Noah Casas, Gabriel Guevara, Jose Palacios, Pablo Riguero, Eva Ruiz, Anastasia Russo
Описание: Ноа вынуждена оставить свой город, парня и друзей и переехать в особняк нового богатого мужа своей матери. Там она встречает Ника, своего нового сводного брата. Они безумно влюбляются друг в друга.

Тип релиза: WEB-DL 1080p
Контейнер: MKV
Видео: MPEG-4 AVC, 1080p, 1920:960 (2.0:1), 8955 kbps, 25.000 fps
Аудио 1: АС3, 6 ch, 48 kHz, 448 kbps Русский MVO HDRezka Studio
Аудио 2: E-AC3, 6 ch, 48 kHz, 640 kbps Испанский
Формат субтитров: SRT

MediaInfo

GeneralUnique ID                                : 273554618879369846285649950644015362164 (0xCDCCB4046CD32DAF2B046F6A02267074)Complete name                            : G:\My.Fault.2023.SPANISH.AMZN.WEB-DL.1080p.mkvFormat                                   : MatroskaFormat version                           : Version 4File size                                : 8.25 GiBDuration                                 : 1 h 57 minOverall bit rate                         : 10.0 Mb/sEncoded date                             : UTC 2023-06-19 08:40:13Writing application                      : mkvmerge v20.0.0 ('I Am The Sun') 64-bitWriting library                          : libebml v1.3.5 + libmatroska v1.4.8
VideoID : 1Format : AVCFormat/Info : Advanced Video CodecFormat profile : High@L4Format settings : CABAC / 4 Ref FramesFormat settings, CABAC : YesFormat settings, Reference frames : 4 framesCodec ID : V_MPEG4/ISO/AVCDuration : 1 h 57 minBit rate mode : ConstantBit rate : 8 955 kb/sNominal bit rate : 10 000 kb/sWidth : 1 920 pixelsHeight : 960 pixelsDisplay aspect ratio : 2.000Frame rate mode : ConstantFrame rate : 25.000 FPSColor space : YUVChroma subsampling : 4:2:0Bit depth : 8 bitsScan type : ProgressiveBits/(Pixel*Frame) : 0.194Stream size : 7.36 GiB (89%)Language : EnglishDefault : YesForced : NoColor range : LimitedColor primaries : BT.709Transfer characteristics : BT.709Matrix coefficients : BT.709
Audio #1ID : 2Format : AC-3Format/Info : Audio Coding 3Commercial name : Dolby DigitalCodec ID : A_AC3Duration : 1 h 57 minBit rate mode : ConstantBit rate : 448 kb/sChannel(s) : 6 channelsChannel layout : L R C LFE Ls RsSampling rate : 48.0 kHzFrame rate : 31.250 FPS (1536 SPF)Compression mode : LossyStream size : 377 MiB (4%)Title : MVO HDRezka StudioLanguage : RussianService kind : Complete MainDefault : YesForced : No
Audio #2ID : 3Format : E-AC-3Format/Info : Enhanced AC-3Commercial name : Dolby Digital PlusCodec ID : A_EAC3Duration : 1 h 57 minBit rate mode : ConstantBit rate : 640 kb/sChannel(s) : 6 channelsChannel layout : L R C LFE Ls RsSampling rate : 48.0 kHzFrame rate : 31.250 FPS (1536 SPF)Compression mode : LossyStream size : 538 MiB (6%)Language : SpanishService kind : Complete MainDefault : NoForced : No
Text #1ID : 4Format : UTF-8Codec ID : S_TEXT/UTF8Codec ID/Info : UTF-8 Plain TextDuration : 1 h 43 minBit rate : 1 b/sCount of elements : 24Stream size : 1.14 KiB (0%)Title : forcedLanguage : RussianDefault : YesForced : No
Text #2ID : 5Format : UTF-8Codec ID : S_TEXT/UTF8Codec ID/Info : UTF-8 Plain TextDuration : 1 h 55 minBit rate : 77 b/sCount of elements : 1329Stream size : 66.0 KiB (0%)Language : RussianDefault : NoForced : No
Text #3ID : 6Format : UTF-8Codec ID : S_TEXT/UTF8Codec ID/Info : UTF-8 Plain TextDuration : 1 h 52 minBit rate : 52 b/sCount of elements : 1323Stream size : 42.8 KiB (0%)Language : EnglishDefault : NoForced : No
Text #4ID : 7Format : UTF-8Codec ID : S_TEXT/UTF8Codec ID/Info : UTF-8 Plain TextDuration : 1 h 55 minBit rate : 80 b/sCount of elements : 1329Stream size : 68.7 KiB (0%)Language : UkrainianDefault : NoForced : No
Text #5ID : 8Format : UTF-8Codec ID : S_TEXT/UTF8Codec ID/Info : UTF-8 Plain TextDuration : 1 h 51 minBit rate : 53 b/sCount of elements : 1452Stream size : 43.4 KiB (0%)Language : SpanishDefault : NoForced : No
Text #6ID : 9Format : UTF-8Codec ID : S_TEXT/UTF8Codec ID/Info : UTF-8 Plain TextDuration : 1 h 55 minBit rate : 49 b/sCount of elements : 1325Stream size : 42.0 KiB (0%)Language : FrenchDefault : NoForced : No
Text #7ID : 10Format : UTF-8Codec ID : S_TEXT/UTF8Codec ID/Info : UTF-8 Plain TextDuration : 1 h 55 minBit rate : 50 b/sCount of elements : 1325Stream size : 43.0 KiB (0%)Language : GermanDefault : NoForced : No
Text #8ID : 11Format : UTF-8Codec ID : S_TEXT/UTF8Codec ID/Info : UTF-8 Plain TextDuration : 1 h 55 minBit rate : 45 b/sCount of elements : 1321Stream size : 38.7 KiB (0%)Language : FinnishDefault : NoForced : No
Text #9ID : 12Format : UTF-8Codec ID : S_TEXT/UTF8Codec ID/Info : UTF-8 Plain TextDuration : 1 h 55 minBit rate : 46 b/sCount of elements : 1321Stream size : 39.6 KiB (0%)Language : SwedishDefault : NoForced : No
Text #10ID : 13Format : UTF-8Codec ID : S_TEXT/UTF8Codec ID/Info : UTF-8 Plain TextDuration : 1 h 55 minBit rate : 48 b/sCount of elements : 1326Stream size : 41.0 KiB (0%)Language : DanishDefault : NoForced : No
Text #11ID : 14Format : UTF-8Codec ID : S_TEXT/UTF8Codec ID/Info : UTF-8 Plain TextDuration : 1 h 55 minBit rate : 47 b/sCount of elements : 1327Stream size : 40.7 KiB (0%)Language : Norwegian BokmalDefault : NoForced : No
Text #12ID : 15Format : UTF-8Codec ID : S_TEXT/UTF8Codec ID/Info : UTF-8 Plain TextDuration : 1 h 55 minBit rate : 50 b/sCount of elements : 1329Stream size : 42.6 KiB (0%)Title : Chinese (Simplified)Language : ChineseDefault : NoForced : No
Text #13ID : 16Format : UTF-8Codec ID : S_TEXT/UTF8Codec ID/Info : UTF-8 Plain TextDuration : 1 h 55 minBit rate : 41 b/sCount of elements : 1440Stream size : 35.3 KiB (0%)Language : JapaneseDefault : NoForced : No
Text #14ID : 17Format : UTF-8Codec ID : S_TEXT/UTF8Codec ID/Info : UTF-8 Plain TextDuration : 1 h 55 minBit rate : 52 b/sCount of elements : 1329Stream size : 44.3 KiB (0%)Language : KoreanDefault : NoForced : No
Menu00:00:00.000 : en:Amazon Original00:00:06.000 : en:Studio Logo00:00:14.000 : en:Scene 300:01:33.000 : en:Title Sequence00:02:00.000 : en:Scene 500:05:33.000 : en:Scene 600:10:19.000 : en:Scene 700:14:36.000 : en:Scene 800:19:22.000 : en:Scene 900:24:18.000 : en:Scene 1000:27:06.000 : en:Scene 1100:29:02.000 : en:Scene 1200:35:26.000 : en:Scene 1300:39:56.000 : en:Scene 1400:45:17.000 : en:Scene 1500:48:07.000 : en:Scene 1600:52:05.000 : en:Scene 1700:55:58.000 : en:Scene 1801:00:22.000 : en:Scene 1901:03:48.000 : en:Scene 2001:08:10.000 : en:Scene 2101:13:19.000 : en:Scene 2201:17:58.000 : en:Scene 2301:21:04.000 : en:Scene 2401:25:28.000 : en:Scene 2501:29:10.000 : en:Scene 2601:35:47.000 : en:Scene 2701:38:10.000 : en:Scene 2801:41:39.000 : en:Scene 2901:47:01.000 : en:Scene 3001:49:56.000 : en:Scene 3101:52:21.000 : en:End Credits
[Profile]  [PM] 
Display posts:    
Reply to topic

Current time is: 20-Jul 03:23

All times are UTC + 2



You cannot post new topics in this forum
You cannot reply to topics in this forum
You cannot edit your posts in this forum
You cannot delete your posts in this forum
You cannot vote in polls in this forum
You cannot attach files in this forum
You cannot download files in this forum