Виртуальный полицейский / Киборг-защитник закона / Смертельная справедливость / Terminal Justice / Cybertech P.D. (Рик Кинг / Rick King) [1996, США, Канада, боевик, фантастика, DVDRip] DVO (Карэ Видео / 31 канал) + Original Eng

Reply to topic
 
Author
Message

Satyr ®

Gender: Unknown

Longevity: 15 years

Posts: 22031

Reputation: 56 [+] [-]

Satyr · Post 21-Jun-2023 04:45

[Quote] 

Виртуальный полицейский / Киборг-защитник закона / Смертельная справедливость / Terminal Justice / Cybertech P.D.
Страна: США, Канада
Жанр: боевик, фантастика
Год выпуска: 1996
Продолжительность: 01:30:38
Перевод: Профессиональный (двухголосый закадровый) Карэ Видео / 31 канал
Субтитры: нет
Оригинальная аудиодорожка: английский
Режиссер: Рик Кинг / Rick King
В ролях: Лоренцо Ламас, Кари Вурер (в титрах Кари Сэлин), Крис Сарандон, Питер Койот, Бэрри Флэтмэн
Описание: Начало XXI века. Только закончилась кровавая война с южно-американскими наркокартелями. Виртуальная реальность (игры, секс, наркотики) заменила настоящую жизнь.
У героя фильма - детектива полиции - работы невпроворот. Полиция не справляется с расследованием преступлений в области виртуальной реальности. Бои в виртуальных джунглях приносят только смерть. Чтобы выиграть главный бой в своей жизни, ему придётся пройти все круги смертельного ада.
Доп. информация:
Видеоряд отсюда https://torrentsland.com.ua/forum/viewtopic.php?t=5433168
Запись от tolk1995, оцифровку сделал RoxMarty.
Синхронизацию звука осуществил JUSTKANT.
Сэмпл: https://www.sendspace.com/file/cbfkri
Качество видео: DVDRip
Формат видео: AVI
Видео: 704x528, 25.000 fps, MPEG-4 Visual, 1905 Kbps, XviD 1.2.1
Аудио 1: 48 KHz, AC3, 2 ch, 192 Kbps
Аудио 2: 48 KHz, AC3, 2 ch, 192 Kbps

MediaInfo

GeneralComplete name                            : C:\Users\Sergei\Downloads\Виртуальный полицейский (Карэ + Eng).aviFormat                                   : AVIFormat/Info                              : Audio Video InterleaveFile size                                : 1.46 GiBDuration                                 : 1h 30mnOverall bit rate                         : 2 303 KbpsMovie name                               : Виртуальный полицейский / Киборг-защитник закона / Смертельная справедливость / Terminal Justice (Володарский + Визгунов)Director                                 : JUSTKANTWriting application                      : VirtualDubMod 1.5.10.2 (build 2540/release)Writing library                          : VirtualDubMod build 2540/releaseCopyright                                : Качество звука: Володарский - VHSRip (RockNIK) и Визгунов - VHSRip (RoxMarty)
VideoID : 0Format : MPEG-4 VisualFormat profile : Advanced Simple@L5Format settings, BVOP : 1Format settings, QPel : NoFormat settings, GMC : No warppointsFormat settings, Matrix : CustomCodec ID : XVIDCodec ID/Hint : XviDDuration : 1h 30mnBit rate : 1 905 KbpsWidth : 704 pixelsHeight : 528 pixelsDisplay aspect ratio : 4:3Frame rate : 25.000 fpsColor space : YUVChroma subsampling : 4:2:0Bit depth : 8 bitsScan type : ProgressiveCompression mode : LossyBits/(Pixel*Frame) : 0.205Stream size : 1.21 GiB (83%)Writing library : XviD 1.2.1 (UTC 2008-12-04)
Audio #1ID : 1Format : AC-3Format/Info : Audio Coding 3Mode extension : CM (complete main)Format settings, Endianness : BigCodec ID : 2000Duration : 1h 30mnBit rate mode : ConstantBit rate : 192 KbpsChannel(s) : 2 channelsChannel positions : Front: L RSampling rate : 48.0 KHzFrame rate : 31.250 fps (1536 spf)Compression mode : LossyStream size : 124 MiB (8%)Alignment : Split accross interleavesInterleave, duration : 40 ms (1.00 video frame)Interleave, preload duration : 500 ms
Audio #2ID : 2Format : AC-3Format/Info : Audio Coding 3Mode extension : CM (complete main)Format settings, Endianness : BigCodec ID : 2000Duration : 1h 30mnBit rate mode : ConstantBit rate : 192 KbpsChannel(s) : 2 channelsChannel positions : Front: L RSampling rate : 48.0 KHzFrame rate : 31.250 fps (1536 spf)Compression mode : LossyStream size : 124 MiB (8%)Alignment : Split accross interleavesInterleave, duration : 40 ms (1.00 video frame)Interleave, preload duration : 500 ms

Скриншоты

[Profile]  [PM] 
Display posts:    
Reply to topic

Current time is: 20-Jul 03:22

All times are UTC + 2



You cannot post new topics in this forum
You cannot reply to topics in this forum
You cannot edit your posts in this forum
You cannot delete your posts in this forum
You cannot vote in polls in this forum
You cannot attach files in this forum
You cannot download files in this forum