Переодетые, или Как трудно быть женщиной / Bellifreschi (Энрико Олдоини / Enrico Oldoini) [1987, Италия, Комедия, WEB-DL 1080p] DVO (НТВ) + Sub Ita + Original Ita

Reply to topic
 
Author
Message

Faust ®

Gender: Unknown

Longevity: 12 years

Posts: 23202

Reputation: 0 [+] [-]

Faust · Post 21-Jun-2023 12:55

[Quote] 

Переодетые, или Как трудно быть женщиной / Bellifreschi
Страна: Италия
Жанр: Комедия
Год выпуска: 1987
Продолжительность: 1:28:45
Перевод: Профессиональный (двухголосый закадровый) НТВ
Субтитры: итальянские
Оригинальная аудиодорожка: итальянский
Режиссер: Энрико Олдоини / Enrico Oldoini
В ролях: Лино Банфи, Кристиан Де Сика, Лайонел Стэндер, Розанна Банфи, Лиза Лавандер, Марина Виро
Описание: Том и Джерри — два итальянских актера, которые едут в Америку, потому что надеятся принять участие в съемках фильма с Сильвестром Сталлоне. Но когда они приезжают на его его виллу в Беверли Хиллз, Сталлоне убивают и парней заподозривают в убийстве. За ними охотятся ЦРУ и ФБР. У героев нет выхода, и они принимают решение стать женщинами. Переодевшись, дуэт выступает в ресторане отеля вместе с сексапильными девушками, что порождает забавные ситуации. В одного влюбляется миллионер Фрэнк, другой крутит шашни с его дочерью. Их досуг с удовольствием скрашивают две путешествующие по Америке девушки. Словом, комикам все время приходится фантазировать и изворачиваться…
Сэмпл: http://usb.iphoto.md/fLiTy
Тип релиза: WEB-DL 1080p
Контейнер: MKV
Видео: MPEG-4/AVC, 1800x1080 (5:3), 13.9 Mb/s 25.000 fps
Аудио: Русский AC3 2.0ch, 48 kHz, 192 kb/s
Аудио 2: Итальянский E-AC-3 2.0ch, 48 kHz, 224 kb/s
Формат субтитров: softsub (SRT)

MediaInfo

GeneralUnique ID                                : 245110837109861568929463697803528324869 (0xB866A14D78B0AE1EA370004EF8534705)Complete name                            : T:\6 PROECTS\Bellifreschi.1987\Bellifreschi.1987.mkvFormat                                   : MatroskaFormat version                           : Version 4File size                                : 8.87 GiBDuration                                 : 1 h 28 minOverall bit rate                         : 14.3 Mb/sEncoded date                             : UTC 2023-06-12 13:53:32Writing application                      : mkvmerge v6.9.1 ('Blue Panther') 32bit built on Apr 18 2014 18:15:44Writing library                          : libebml v1.3.0 + libmatroska v1.4.1
VideoID : 1Format : AVCFormat/Info : Advanced Video CodecFormat profile : High@L4Format settings : CABAC / 4 Ref FramesFormat settings, CABAC : YesFormat settings, Reference frames : 4 framesCodec ID : V_MPEG4/ISO/AVCDuration : 1 h 28 minBit rate : 13.6 Mb/sWidth : 1 800 pixelsHeight : 1 080 pixelsDisplay aspect ratio : 5:3Frame rate mode : ConstantFrame rate : 25.000 FPSColor space : YUVChroma subsampling : 4:2:0Bit depth : 8 bitsScan type : ProgressiveBits/(Pixel*Frame) : 0.280Stream size : 8.43 GiB (95%)Default : YesForced : NoColor range : LimitedColor primaries : BT.709Transfer characteristics : BT.709Matrix coefficients : BT.709
Audio #1ID : 2Format : AC-3Format/Info : Audio Coding 3Commercial name : Dolby DigitalCodec ID : A_AC3Duration : 1 h 28 minBit rate mode : ConstantBit rate : 192 kb/sChannel(s) : 2 channelsChannel layout : L RSampling rate : 48.0 kHzFrame rate : 31.250 FPS (1536 SPF)Compression mode : LossyStream size : 122 MiB (1%)Title : MVO ( НТВ )Language : RussianService kind : Complete MainDefault : YesForced : No
Audio #2ID : 3Format : E-AC-3Format/Info : Enhanced AC-3Commercial name : Dolby Digital PlusCodec ID : A_EAC3Duration : 1 h 28 minBit rate mode : ConstantBit rate : 224 kb/sChannel(s) : 2 channelsChannel layout : L RSampling rate : 48.0 kHzFrame rate : 31.250 FPS (1536 SPF)Compression mode : LossyStream size : 142 MiB (2%)Title : OriginalLanguage : ItalianService kind : Complete MainDefault : NoForced : No
TextID : 4Format : UTF-8Codec ID : S_TEXT/UTF8Codec ID/Info : UTF-8 Plain TextTitle : ИтальянскиеLanguage : ItalianDefault : NoForced : No

Скриншоты

[Profile]  [PM] 
Display posts:    
Reply to topic

Current time is: 21-Jul 22:24

All times are UTC + 2



You cannot post new topics in this forum
You cannot reply to topics in this forum
You cannot edit your posts in this forum
You cannot delete your posts in this forum
You cannot vote in polls in this forum
You cannot attach files in this forum
You cannot download files in this forum