Супер Фантоцци / Superfantozzi / Super Fantozzi (Нери Паренти / Neri Parenti) [1986, Италия, комедия, WEB-DL 1080p] AVO (Николай Золотухин) + AVO (Сергей Козлов) + Original Ita

Reply to topic
 
Author
Message

Faust ®

Gender: Unknown

Longevity: 12 years

Posts: 23187

Reputation: 0 [+] [-]

Faust · Post 21-Jun-2023 12:55

[Quote] 

Супер Фантоцци / Super Fantozzi
Страна: Италия
Жанр: комедия
Год выпуска: 1986
Продолжительность: 01:29:45
Перевод 1: Авторский (одноголосый закадровый) Николай Золотухин
Перевод 2: Авторский (одноголосый закадровый) Сергей Козлов
Субтитры: нет
Оригинальная аудиодорожка: итальянский
Режиссер: Нери Паренти / Neri Parenti
В ролях: Паоло Вилладжо, Лью Босисио, Жижи Редер, Плинио Фернандо, Ева Лена, Люк Меренда, Джимми иль Феномено...
Описание: Фильм начинается с того, что Господь, устав, создал Фантоцци. Через день он создал Адама, Еву и женщину для Фантоцци (полная противоположность красавице Еве). Потом Господь изгоняет супругов Фантоцци из Рая за то что Фантоцци по просьбе Евы сорвал запретный плод. Но Господь не знал о злой шутке Евы. Далее идут небольшие сюжеты, в которых показывается злоключения Фантоцци в разных исторических эпохах. Сначала злоключения Фантоцци в доисторические времена, затем в Древнем Риме, затем время Иисуса Христа, далее - Средневековье, время Робин Гуда, французской революции, 19 век, 30-е годы в США, Вторая Мировая война, современность (т. е. 1986) и будущее.
Доп. информация: Перевод Штейна с VHSRip от 3zoxan3. Перевод Козлова с DVD от dvdbox. Синхронизация звука - Dreven.
Сэмпл: http://sendfile.su/1669916
Тип релиза: WEB-DL 1080p
Контейнер: MKV
Видео: 1920x1080 (16:9), 25.000 fps, AVC, ~13.5 Mbps, 0.260 bits/pixel
Аудио 1: Russian, 48.0 KHz, AC3, 2 ch, 192 Kbps - Владимир Штейн
Аудио 2: Russian, 48.0 KHz, AC3, 2 ch, 192 Kbps - Сергей Козлов

MediaInfo

GeneralUnique ID                   : 145792934355923730271506079438903540563 (0x6DAEB2A2BBC458332C6257DB3A157B53)Complete name               : E:\Superfantozzi. WEB-DL 1080p.mkvFormat                      : MatroskaFormat version              : Version 4File size                   : 9.03 GiBDuration                    : 1 h 29 minOverall bit rate            : 14.4 Mb/sEncoded date                : UTC 2023-06-12 13:49:57Writing application         : mkvmerge v44.0.0 ('Domino') 64-bitWriting library             : libebml v1.3.10 + libmatroska v1.5.2
VideoID : 1Format : AVCFormat/Info : Advanced Video CodecFormat profile : High@L4Format settings : CABAC / 4 Ref FramesFormat settings, CABAC : YesFormat settings, Reference : 4 framesCodec ID : V_MPEG4/ISO/AVCDuration : 1 h 29 minBit rate : 13.8 Mb/sWidth : 1 920 pixelsHeight : 1 080 pixelsDisplay aspect ratio : 16:9Frame rate mode : ConstantFrame rate : 25.000 FPSColor space : YUVChroma subsampling : 4:2:0Bit depth : 8 bitsScan type : ProgressiveBits/(Pixel*Frame) : 0.266Stream size : 8.64 GiB (96%)Language : ItalianDefault : YesForced : NoColor range : LimitedColor primaries : BT.709Transfer characteristics : BT.709Matrix coefficients : BT.709
Audio #1ID : 2Format : AC-3Format/Info : Audio Coding 3Commercial name : Dolby DigitalCodec ID : A_AC3Duration : 1 h 29 minBit rate mode : ConstantBit rate : 192 kb/sChannel(s) : 2 channelsChannel layout : L RSampling rate : 48.0 kHzFrame rate : 31.250 FPS (1536 SPF)Compression mode : LossyStream size : 123 MiB (1%)Title : Владимир ШтейнLanguage : RussianService kind : Complete MainDefault : YesForced : No
Audio #2ID : 3Format : AC-3Format/Info : Audio Coding 3Commercial name : Dolby DigitalCodec ID : A_AC3Duration : 1 h 29 minBit rate mode : ConstantBit rate : 192 kb/sChannel(s) : 2 channelsChannel layout : L RSampling rate : 48.0 kHzFrame rate : 31.250 FPS (1536 SPF)Compression mode : LossyStream size : 123 MiB (1%)Title : Сергей КозловLanguage : RussianService kind : Complete MainDefault : NoForced : No
Audio #3ID : 4Format : E-AC-3Format/Info : Enhanced AC-3Commercial name : Dolby Digital PlusCodec ID : A_EAC3Duration : 1 h 29 minBit rate mode : ConstantBit rate : 224 kb/sChannel(s) : 2 channelsChannel layout : L RSampling rate : 48.0 kHzFrame rate : 31.250 FPS (1536 SPF)Compression mode : LossyStream size : 144 MiB (2%)Language : ItalianService kind : Complete MainDefault : NoForced : No

Скриншоты

[Profile]  [PM] 
Display posts:    
Reply to topic

Current time is: 20-Jul 03:21

All times are UTC + 2



You cannot post new topics in this forum
You cannot reply to topics in this forum
You cannot edit your posts in this forum
You cannot delete your posts in this forum
You cannot vote in polls in this forum
You cannot attach files in this forum
You cannot download files in this forum