Макс Клауд / The Intergalactic Adventures of Max Cloud / Max Cloud (Мартин Оуэн / Martin Owen) [2020, Великобритания, комедия, фантастика, приключения, BDRemux 1080p] VO (Дмитрий Есарев) + Original Eng + Sub (Eng, Tur)

Reply to topic
 
Author
Message

Faust ®

Gender: Unknown

Longevity: 12 years

Posts: 23217

Reputation: 0 [+] [-]

Faust · Post 21-Jun-2023 17:00

[Quote] 

Макс Клауд / The Intergalactic Adventures of Max Cloud / Max Cloud (2020)- Страна: Великобритания
Год выпуска: 2020
Студия: Goldfinch Pictures
Жанр: комедия, фантастика, приключения, боевик
Слоган: «Choose your player»
Продолжительность: 01:28:45
Перевод: Одноголосый закадровый Дмитрий Есарев (2021) по собственному переводу, без цензуры
Оригинальная аудиодорожка: английская
Субтитры: английские full & SDH, турецкие full
Навигация по главам: присутствует-Режиссер: Мартин Оуэн / Martin Owen
Сценарий: Салли Коллетт / Sally Collett, Мартин Оуэн / Martin Owen
В ролях:
  • Скотт Эдкинс / Scott Adkins ... Max Cloud
  • Томми Флэнаган / Tommy Flanagan ... Brock Donnelly
  • Лашана Линч / Lashana Lynch ... Shee
  • Эллиотт Джеймс Лангридж / Elliott James Langridge ... Jake
  • Изабелль Аллен / Isabelle Allen ... Sarah
  • Джон Ханна / John Hannah ... Revengor
  • Франц Драмех / Franz Drameh ... Cowboy
  • Салли Коллетт / Sally Collett ... Rexy
  • Джейсон Мацца / Jason Maza ... Space Witch
  • Сэм Хэзелдайн / Sam Hazeldine ... Tony
  • Энди Ошо / Andi Osho ... Sofia

kinopoisk.ru/film/1225878/
imdb.com/title/tt9472532/
Official trailer youtube.com/watch?v=ZqQZRSploe0-Сюжет: Бруклин, 1990 год. Играя в видеоигру о приключениях межгалактического героя Макса Клауда, Сара (девушка-подросток) встречает нового персонажа - Космическую Ведьму, которая открывает портал и переносит Сару в мир игры. Теперь она Джейк (помощник главного героя) и рассчитывать может только на помощь приятеля Ковбоя, который должен во что бы то ни стало завершить игру. А иначе Сара останется 16-битным персонажем навсегда.
Доп. информация: столь низкая оценка не оправдана. Тут высмеивают клише и стереотипы. Оцените фильм сами.-Тип релиза: BDRemux 1080p | The.Intergalactic.Adventures.of.Max.Cloud.2020.1080p.BluRay.REMUX.AVC.DTS-HD.MA.5.1-FGT
Контейнер: MKV
Видео: [8 bits] AVC/h.264 (High@L4.1), 1920x1080 [16:9], 23.976 fps, 28 Mbps
Аудио #1: Русский одноголосый закадровый: AC3, 48 kHz, 16 bit, 5.1, 448 kbps | Дмитрий Есарев (2021) по собственному переводу, без цензуры
Аудио #2: Английский оригинал: DTS-HD MA, 48 kHz, 16 bits, 5.1, 2458 kbps (DTS Core: 5.1 / 48 kHz / 1509 kbps / 16-bit)
Аудио #3: Английский оригинал: AC3, 48 kHz, 16 bits, 2.0, 384 kbps
Формат субтитров: softsub (SRT/PGS) | Доп. информация о субтитрах: английские full (.SRT) & SDH (.PGS), турецкие full (.SRT)
Меню: Обозначенные главы / chapters

MediaInfo

General
Unique ID                   : 221369992449290583398508057940209980902 (0xA68A4F4A1DF74BC381BF4AE2C16055E6)
Complete name               : ***\Max Cloud[Martin Owen][2020]BDRemux.1080p[Rus(Yesarev).Eng].mkv
Format                      : Matroska
Format version              : Version 4 / Version 2
File size                   : 18.6 GiB
Duration                    : 1h 28mn
Overall bit rate mode       : Variable
Overall bit rate            : 30.0 Mbps
Movie name                  : Макс Клауд / The Intergalactic Adventures of Max Cloud / Max Cloud (2020) BDRemux 1080p | AVO Дмитрий Есарев + Eng
Encoded date                : UTC 2023-06-21 01:26:40
Writing application         : mkvmerge v8.2.0 ('World of Adventure') 64bit
Writing library             : libebml v1.3.1 + libmatroska v1.4.2
Attachements                : cover.jpg / Max.Cloud.2020.BDRip.1080p.Yesarev.mkv.txt / The.Intergalactic.Adventures.of.Max.Cloud.2020.1080p.BluRay.REMUX.AVC.DTS-HD.MA.5.1-FGT.mkv.txt / The.Intergalactic.Adventures.of.Max.Cloud.2020.720p.BluRay.DUAL.DTS.x264-MTeam.mkv.txt
DURATION                    : 01:26:53.129000000
NUMBER_OF_FRAMES            : 1051
NUMBER_OF_BYTES             : 36551
_STATISTICS_WRITING_APP     : mkvmerge v8.2.0 ('World of Adventure') 64bit
_STATISTICS_WRITING_DATE_UT : 2023-06-21 01:26:40
_STATISTICS_TAGS            : BPS DURATION NUMBER_OF_FRAMES NUMBER_OF_BYTES
Video
ID                          : 1
Format                      : AVC
Format/Info                 : Advanced Video Codec
Format profile              : High@L4.1
Format settings, CABAC      : Yes
Format settings, ReFrames   : 4 frames
Codec ID                    : V_MPEG4/ISO/AVC
Duration                    : 1h 28mn
Bit rate mode               : Variable
Maximum bit rate            : 28.0 Mbps
Width                       : 1 920 pixels
Height                      : 1 080 pixels
Display aspect ratio        : 16:9
Frame rate mode             : Constant
Frame rate                  : 23.976 fps
Color space                 : YUV
Chroma subsampling          : 4:2:0
Bit depth                   : 8 bits
Scan type                   : Progressive
Title                       : The.Intergalactic.Adventures.of.Max.Cloud.2020.1080p.BluRay.REMUX.AVC.DTS-HD.MA.5.1-FGT
Language                    : English
Default                     : No
Forced                      : No
DURATION                    : 01:28:45.320000000
NUMBER_OF_FRAMES            : 127680
NUMBER_OF_BYTES             : 17771305922
_STATISTICS_WRITING_APP     : mkvmerge v8.2.0 ('World of Adventure') 64bit
_STATISTICS_WRITING_DATE_UT : 2023-06-21 01:26:40
_STATISTICS_TAGS            : BPS DURATION NUMBER_OF_FRAMES NUMBER_OF_BYTES
Audio #1
ID                          : 2
Format                      : AC-3
Format/Info                 : Audio Coding 3
Mode extension              : CM (complete main)
Format settings, Endianness : Big
Codec ID                    : A_AC3
Duration                    : 1h 28mn
Bit rate mode               : Constant
Bit rate                    : 448 Kbps
Channel(s)                  : 6 channels
Channel positions           : Front: L C R, Side: L R, LFE
Sampling rate               : 48.0 KHz
Compression mode            : Lossy
Stream size                 : 284 MiB (1%)
Title                       : .ac3 DD 5.1 448 kbps 48 kHz | VO Дмитрий Есарев [2021] по собственному переводу, без цензуры
Language                    : Russian
Default                     : Yes
Forced                      : No
DURATION                    : 01:28:44.321000000
NUMBER_OF_FRAMES            : 499155
NUMBER_OF_BYTES             : 1635724368
_STATISTICS_WRITING_APP     : mkvmerge v8.2.0 ('World of Adventure') 64bit
_STATISTICS_WRITING_DATE_UT : 2023-06-21 01:26:40
_STATISTICS_TAGS            : BPS DURATION NUMBER_OF_FRAMES NUMBER_OF_BYTES
Audio #2
ID                          : 3
Format                      : DTS
Format/Info                 : Digital Theater Systems
Format profile              : MA / Core
Mode                        : 16
Format settings, Endianness : Big
Codec ID                    : A_DTS
Duration                    : 1h 28mn
Bit rate mode               : Variable
Bit rate                    : Unknown / 1 509 Kbps
Channel(s)                  : 6 channels
Channel positions           : Front: L C R, Side: L R, LFE
Sampling rate               : 48.0 KHz
Bit depth                   : 16 bits
Compression mode            : Lossless / Lossy
Title                       : DTS-HD Master Audio English 2458 kbps 5.1 / 48 kHz / 2458 kbps / 16-bit (DTS Core: 5.1 / 48 kHz / 1509 kbps / 16-bit)
Language                    : English
Default                     : No
Forced                      : No
DURATION                    : 01:28:44.320000000
NUMBER_OF_FRAMES            : 166385
NUMBER_OF_BYTES             : 255567360
_STATISTICS_WRITING_APP     : mkvmerge v8.2.0 ('World of Adventure') 64bit
_STATISTICS_WRITING_DATE_UT : 2023-06-21 01:26:40
_STATISTICS_TAGS            : BPS DURATION NUMBER_OF_FRAMES NUMBER_OF_BYTES
Audio #3
ID                          : 4
Format                      : AC-3
Format/Info                 : Audio Coding 3
Mode extension              : CM (complete main)
Format settings, Endianness : Big
Codec ID                    : A_AC3
Duration                    : 1h 28mn
Bit rate mode               : Constant
Bit rate                    : 384 Kbps
Channel(s)                  : 2 channels
Channel positions           : Front: L R
Sampling rate               : 48.0 KHz
Compression mode            : Lossy
Stream size                 : 244 MiB (1%)
Title                       : .ac3 DD 2.0 384 kbps 48 kHz
Language                    : English
Default                     : No
Forced                      : No
DURATION                    : 01:27:41.006000000
NUMBER_OF_FRAMES            : 2786
NUMBER_OF_BYTES             : 12527692
_STATISTICS_WRITING_APP     : mkvmerge v8.2.0 ('World of Adventure') 64bit
_STATISTICS_WRITING_DATE_UT : 2023-06-21 01:26:40
_STATISTICS_TAGS            : BPS DURATION NUMBER_OF_FRAMES NUMBER_OF_BYTES
Text #1
ID                          : 5
Format                      : UTF-8
Codec ID                    : S_TEXT/UTF8
Codec ID/Info               : UTF-8 Plain Text
Title                       : .srt [OCR] English full sub
Language                    : English
Default                     : No
Forced                      : No
Text #2
ID                          : 6
Format                      : PGS
Muxing mode                 : zlib
Codec ID                    : S_HDMV/PGS
Codec ID/Info               : Picture based subtitle format used on BDs/HD-DVDs
Title                       : PGS English SDH
Language                    : English
Default                     : No
Forced                      : No
Text #3
ID                          : 7
Format                      : UTF-8
Codec ID                    : S_TEXT/UTF8
Codec ID/Info               : UTF-8 Plain Text
Title                       : .srt Turskish full sub
Language                    : Turkish
Default                     : No
Forced                      : No
Menu
00:00:00.000                : en:Chapter 01
00:06:05.615                : en:Chapter 02
00:11:57.675                : en:Chapter 03
00:23:49.302                : en:Chapter 04
00:32:47.590                : en:Chapter 05
00:41:41.790                : en:Chapter 06
00:50:15.262                : en:Chapter 07
01:00:42.221                : en:Chapter 08
01:12:23.756                : en:Chapter 09
01:23:36.386                : en:Chapter 10

The.Intergalactic.Adventures.of.Max.Cloud.2020.1080p.BluRay.REMUX.AVC.DTS-HD.MA.5.1-FGT

General
Unique ID                   : 132812971355756338935201055861931471986 (0x63EAD90CF0D23F3529713653F7EB7472)
Complete name               : ***\The.Intergalactic.Adventures.of.Max.Cloud.2020.1080p.BluRay.REMUX.AVC.DTS-HD.MA.5.1-FGT.mkv
Format                      : Matroska
Format version              : Version 4 / Version 2
File size                   : 18.3 GiB
Duration                    : 1h 28mn
Overall bit rate mode       : Variable
Overall bit rate            : 29.6 Mbps
Movie name                  : The.Intergalactic.Adventures.of.Max.Cloud.2020.1080p.BluRay.REMUX.AVC.DTS-HD.MA.5.1-FGT
Encoded date                : UTC 2021-01-16 13:44:28
Writing application         : mkvmerge v51.0.0 ('I Wish') 64-bit
Writing library             : libebml v1.4.0 + libmatroska v1.6.2
Attachements                : small_cover.jpg / small_cover_land.jpg / cover.jpg / cover_land.jpg
DURATION                    : 01:26:53.455000000
NUMBER_OF_FRAMES            : 1417
NUMBER_OF_BYTES             : 37304
_STATISTICS_WRITING_APP     : mkvmerge v51.0.0 ('I Wish') 64-bit
_STATISTICS_WRITING_DATE_UT : 2021-01-16 13:44:28
_STATISTICS_TAGS            : BPS DURATION NUMBER_OF_FRAMES NUMBER_OF_BYTES
Video
ID                          : 1
Format                      : AVC
Format/Info                 : Advanced Video Codec
Format profile              : High@L4.1
Format settings, CABAC      : Yes
Format settings, ReFrames   : 4 frames
Codec ID                    : V_MPEG4/ISO/AVC
Duration                    : 1h 28mn
Bit rate mode               : Variable
Maximum bit rate            : 28.0 Mbps
Width                       : 1 920 pixels
Height                      : 1 080 pixels
Display aspect ratio        : 16:9
Frame rate mode             : Constant
Frame rate                  : 23.976 fps
Color space                 : YUV
Chroma subsampling          : 4:2:0
Bit depth                   : 8 bits
Scan type                   : Progressive
Language                    : English
Default                     : No
Forced                      : No
DURATION                    : 01:28:45.320000000
NUMBER_OF_FRAMES            : 127680
NUMBER_OF_BYTES             : 17771305922
SOURCE_ID                   : 001011
_STATISTICS_WRITING_APP     : mkvmerge v51.0.0 ('I Wish') 64-bit
_STATISTICS_WRITING_DATE_UT : 2021-01-16 13:44:28
_STATISTICS_TAGS            : BPS DURATION NUMBER_OF_FRAMES NUMBER_OF_BYTES SOURCE_ID
Audio #1
ID                          : 2
Format                      : DTS
Format/Info                 : Digital Theater Systems
Format profile              : MA / Core
Mode                        : 16
Format settings, Endianness : Big
Codec ID                    : A_DTS
Duration                    : 1h 28mn
Bit rate mode               : Variable
Bit rate                    : Unknown / 1 509 Kbps
Channel(s)                  : 6 channels
Channel positions           : Front: L C R, Side: L R, LFE
Sampling rate               : 48.0 KHz
Bit depth                   : 16 bits
Compression mode            : Lossless / Lossy
Title                       : DTS-HD MA 5.1
Language                    : English
Default                     : Yes
Forced                      : No
DURATION                    : 01:28:44.321000000
NUMBER_OF_FRAMES            : 499155
NUMBER_OF_BYTES             : 1635724368
SOURCE_ID                   : 001100
_STATISTICS_WRITING_APP     : mkvmerge v51.0.0 ('I Wish') 64-bit
_STATISTICS_WRITING_DATE_UT : 2021-01-16 13:44:28
_STATISTICS_TAGS            : BPS DURATION NUMBER_OF_FRAMES NUMBER_OF_BYTES SOURCE_ID
Audio #2
ID                          : 3
Format                      : AC-3
Format/Info                 : Audio Coding 3
Mode extension              : CM (complete main)
Format settings, Endianness : Big
Codec ID                    : A_AC3
Duration                    : 1h 28mn
Bit rate mode               : Constant
Bit rate                    : 384 Kbps
Channel(s)                  : 2 channels
Channel positions           : Front: L R
Sampling rate               : 48.0 KHz
Compression mode            : Lossy
Stream size                 : 244 MiB (1%)
Title                       : DD 2.0
Language                    : English
Default                     : No
Forced                      : No
DURATION                    : 01:28:44.320000000
NUMBER_OF_FRAMES            : 166385
NUMBER_OF_BYTES             : 255567360
SOURCE_ID                   : 001101
_STATISTICS_WRITING_APP     : mkvmerge v51.0.0 ('I Wish') 64-bit
_STATISTICS_WRITING_DATE_UT : 2021-01-16 13:44:28
_STATISTICS_TAGS            : BPS DURATION NUMBER_OF_FRAMES NUMBER_OF_BYTES SOURCE_ID
Text #1
ID                          : 4
Format                      : UTF-8
Codec ID                    : S_TEXT/UTF8
Codec ID/Info               : UTF-8 Plain Text
Title                       : English-SRT
Language                    : English
Default                     : Yes
Forced                      : No
DURATION                    : 01:27:41.027000000
NUMBER_OF_FRAMES            : 2786
NUMBER_OF_BYTES             : 28802478
SOURCE_ID                   : 001200
_STATISTICS_WRITING_APP     : mkvmerge v51.0.0 ('I Wish') 64-bit
_STATISTICS_WRITING_DATE_UT : 2021-01-16 13:44:28
_STATISTICS_TAGS            : BPS DURATION NUMBER_OF_FRAMES NUMBER_OF_BYTES SOURCE_ID
Text #2
ID                          : 5
Format                      : PGS
Muxing mode                 : zlib
Codec ID                    : S_HDMV/PGS
Codec ID/Info               : Picture based subtitle format used on BDs/HD-DVDs
Title                       : English-PGS
Language                    : English
Default                     : No
Forced                      : No
Menu
00:00:00.000                : en:Chapter 01
00:06:05.615                : en:Chapter 02
00:11:57.675                : en:Chapter 03
00:23:49.302                : en:Chapter 04
00:32:47.590                : en:Chapter 05
00:41:41.790                : en:Chapter 06
00:50:15.262                : en:Chapter 07
01:00:42.221                : en:Chapter 08
01:12:23.756                : en:Chapter 09
01:23:36.386                : en:Chapter 10

Скриншоты

imageban.ru

https://i2.imageban.ru/out/2023/06/19/c102779b16ff1ac7130f97689ff528be.png
https://i5.imageban.ru/out/2023/06/19/a838aa44b4a7d138ec27f6ace8822d7e.png
https://i1.imageban.ru/out/2023/06/19/a4e2318bf28ba8f7618e6f7d0f815746.png
https://i4.imageban.ru/out/2023/06/19/8eeded00a8bffdeed5a3285263da4072.png
https://i4.imageban.ru/out/2023/06/19/381bd1ab25023fc2cff8dc0c8ebfe4cb.png
https://i6.imageban.ru/out/2023/06/19/743ab9b70deb2c50ca3aa7ec54588d77.png
https://i3.imageban.ru/out/2023/06/19/d55a438d9abaab111dc8e777e75fcf82.png
https://i6.imageban.ru/out/2023/06/19/761797755e1857714458f1dab58021c5.png
https://i6.imageban.ru/out/2023/06/19/8e5992498a3f55c210f4d460fddf3cb1.png
https://i7.imageban.ru/out/2023/06/19/c0fe07df9c196220ebf53de9fa7c9a9f.png
https://i7.imageban.ru/out/2023/06/19/5fda6c04c460ec9279583f071e42e118.png
https://i2.imageban.ru/out/2023/06/19/d4072888847a24fbe4cb212651ed8504.png
https://i3.imageban.ru/out/2023/06/19/06eaf70fce5389f0ecdb96d3bd1d2a01.png
https://i2.imageban.ru/out/2023/06/19/123efe40b99fb9bc4446d644e913cb16.png
https://i4.imageban.ru/out/2023/06/19/2e0bb0b63266eca6e83ebcedc6840988.png
https://i6.imageban.ru/out/2023/06/19/815771cd30ca718d9c399733a3e00d35.png
https://i7.imageban.ru/out/2023/06/19/44e60438c3fdc074a740f9747a48ae2a.png
https://i7.imageban.ru/out/2023/06/19/a911f51d0103484727bc599cf2cd5c74.png

Прямая ссылка

https://i1.imageban.ru/out/2023/06/19/a26135401c1befc49a25357ab4abde18.png
https://i6.imageban.ru/out/2023/06/19/d48296c20ab1f3641d3dc0500dc05cda.png
https://i4.imageban.ru/out/2023/06/19/a0b9eff8342d6b2a97eba44e45b15994.png
https://i5.imageban.ru/out/2023/06/19/85d03bf732c0f307133d809c379b7e0e.png
https://i2.imageban.ru/out/2023/06/19/6bd45a9b7f933091ae5d0afece71d814.png
https://i3.imageban.ru/out/2023/06/19/4fcdcfd04529479690a8346806bbba40.png
https://i7.imageban.ru/out/2023/06/19/130f434418382ec67da6a9dba859aa89.png
https://i2.imageban.ru/out/2023/06/19/215c0ec75a1f2a1882a149cd1a925b1b.png
https://i4.imageban.ru/out/2023/06/19/2e269591b9e805ca5a0ba82e05877c59.png
https://i3.imageban.ru/out/2023/06/19/dfaebce5cdd475e13b1372f3e12316c0.png
https://i1.imageban.ru/out/2023/06/19/006101058aace375c7ccfec3e819e1eb.png
https://i3.imageban.ru/out/2023/06/19/484657b02982f8a5bccec1e319f66e30.png
https://i5.imageban.ru/out/2023/06/19/418bd599150a0968819c1518b4f048ee.png
https://i6.imageban.ru/out/2023/06/19/e02db4be8da3daeff3a312753195f4d7.png
https://i7.imageban.ru/out/2023/06/19/977beee028ccb37a46d0cb328f127a97.png
https://i6.imageban.ru/out/2023/06/19/6e6e6f1174f97f61a8a2b9395755d33e.png
https://i3.imageban.ru/out/2023/06/19/de9296d6a6ebc7e6c1462f89a3c14e0f.png
https://i6.imageban.ru/out/2023/06/19/f8e344b09b0cdde8429ed7245aa72150.png
Доп. информацияПеревёл и озвучил Дмитрий Есарев, работа со звуком - kkrese.
Единоличный заказ: podorov92-За основу взят The.Intergalactic.Adventures.of.Max.Cloud.2020.1080p.BluRay.REMUX.AVC.DTS-HD.MA.5.1-FGT, на нём был DTS-HD MA и .ac3 DD 2.0
DTS взят из The.Intergalactic.Adventures.of.Max.Cloud.2020.720p.BluRay.DUAL.DTS.x264-MTeam, как и турецие субтитры.-

Фильм на трекере

Макс Клауд / The Intergalactic Adventures of Max Cloud / Max Cloud (Мартин Оуэн / Martin Owen) [2020, Великобритания, комедия, фантастика, приключения, BDRip 720p] AVO (Дмитрий Есарев) + Original Eng + Sub (Eng, Tur) 3.74 GB
Макс Клауд / The Intergalactic Adventures of Max Cloud / Max Cloud (Мартин Оуэн / Martin Owen) [2020, Великобритания, комедия, фантастика, приключения, BDRip 1080p] AVO (Дмитрий Есарев) + Original Eng + Sub (Eng, Tur) 8.84 GB
Макс Клауд / The Intergalactic Adventures of Max Cloud / Max Cloud (Мартин Оуэн / Martin Owen) [2020, Великобритания, комедия, фантастика, приключения, BDRemux 1080p] AVO (Дмитрий Есарев) + Original Eng + Sub (Eng, Tur) 19.54 GBMax Cloud (2020)
- Важно:
Сидировать продолжительное время по техническим причинам возможности нет.
Заброшенная раздача канет в лету.
Не позволяй материалу сгинуть.
[Profile]  [PM] 
Display posts:    
Reply to topic

Current time is: 25-Jul 06:27

All times are UTC + 2



You cannot post new topics in this forum
You cannot reply to topics in this forum
You cannot edit your posts in this forum
You cannot delete your posts in this forum
You cannot vote in polls in this forum
You cannot attach files in this forum
You cannot download files in this forum