Гадёныши / The Dirties (Мэтт Джонсон / Matt Johnson) [2013, Канада, драма, криминал, WEB-DL 720p] VO (datynet) + Sub Eng + Original Eng

Reply to topic
 
Author
Message

Faust ®

Gender: Unknown

Longevity: 12 years

Posts: 23202

Reputation: 0 [+] [-]

Faust · Post 22-Jun-2023 05:10

[Quote] 

Гадёныши / The Dirties
Страна: Канада
Студия: XYZ Films, Zapruder Films
Жанр: драма, криминал
Год выпуска: 2013
Продолжительность: 01:22:45
Перевод: Одноголосый закадровый datynet
Субтитры: английские
Оригинальная аудиодорожка: английский
Режиссер: Мэтт Джонсон / Matt Johnson
В ролях: Мэтт Джонсон, Оуэн Уильямс, Падрайг Сингал, Росс Хилл, Криста Мэдисон, Шэйлин Гарнетт, Джош Боулз, Брэндон Викенс, Ален Делэйн
Описание: Два приятеля становятся жертвами запугиваний со стороны компании школьных задир и решают отомстить обидчикам, называющим себя «гадёнышами», но отомстить не по-настоящему, а в кино. Дело в том, что оба любят смотреть и обсуждать фильмы, поэтому вооружившись собственной камерой, они снимают псевдодокументальную ленту о возмездии — до тех пор, пока не исчезает грань между фантазиями и реальностью.
Доп. информация: Внимание! В русской аудиодорожке содержится ненормативная лексика.
Кинопоиск - IMDb
Sample
Тип релиза: WEB-DL 720p
Контейнер: MKV
Видео: MPEG4 AVC Video, H264, 16:9, 1280x720, 23.976 fps, 3845 Kbps
Аудио 1: Russian (AC3, 2 ch, 192 kbps, 48.0 KHz) - VO
Аудио 2: English (AC3, 6 ch, 384 kbps, 48.0 KHz) - оригинал
Формат субтитров: softsub (SRT)

MediaInfo

General
Unique ID : 208854724577761630168139795348991767609 (0x9D1FF4F1710ABFE29F92347C4E47F439)
Complete name : W:\The Dirties 2013 WEB-DL 720p.mkv
Format : Matroska
Format version : Version 4 / Version 2
File size : 2.61 GiB
Duration : 1 h 22 min
Overall bit rate : 4 511 kb/s
Encoded date : UTC 2023-06-19 18:49:29
Writing application : mkvmerge v6.1.0 ('Old Devil') built on Mar 2 2013 14:32:37
Writing library : libebml v1.3.0 + libmatroska v1.4.0
Video
ID : 1
Format : AVC
Format/Info : Advanced Video Codec
Format profile : High@L3.1
Format settings : 2 Ref Frames
Format settings, CABAC : No
Format settings, ReFrames : 2 frames
Codec ID : V_MPEG4/ISO/AVC
Duration : 1 h 22 min
Bit rate : 3 845 kb/s
Width : 1 280 pixels
Height : 720 pixels
Display aspect ratio : 16:9
Frame rate mode : Constant
Frame rate : 23.976 FPS
Color space : YUV
Chroma subsampling : 4:2:0
Bit depth : 8 bits
Scan type : Progressive
Bits/(Pixel*Frame) : 0.174
Stream size : 2.22 GiB (85%)
Language : English
Default : Yes
Forced : No
Color range : Limited
Color primaries : BT.709
Transfer characteristics : BT.709
Matrix coefficients : BT.709
Audio #1
ID : 2
Format : AC-3
Format/Info : Audio Coding 3
Codec ID : A_AC3
Duration : 1 h 22 min
Bit rate mode : Constant
Bit rate : 192 kb/s
Channel(s) : 2 channels
Channel positions : Front: L R
Sampling rate : 48.0 kHz
Frame rate : 31.250 FPS (1536 SPF)
Bit depth : 16 bits
Compression mode : Lossy
Stream size : 114 MiB (4%)
Language : Russian
Service kind : Complete Main
Default : Yes
Forced : No
Audio #2
ID : 3
Format : AC-3
Format/Info : Audio Coding 3
Codec ID : A_AC3
Duration : 1 h 22 min
Bit rate mode : Constant
Bit rate : 384 kb/s
Channel(s) : 6 channels
Channel positions : Front: L C R, Side: L R, LFE
Sampling rate : 48.0 kHz
Frame rate : 31.250 FPS (1536 SPF)
Bit depth : 16 bits
Compression mode : Lossy
Stream size : 227 MiB (9%)
Language : English
Service kind : Complete Main
Default : No
Forced : No
Text
ID : 4
Format : UTF-8
Codec ID : S_TEXT/UTF8
Codec ID/Info : UTF-8 Plain Text
Language : English
Default : No
Forced : No
Menu
00:00:00.000 : en:Chapter 01
00:11:32.000 : en:Chapter 02
00:22:19.000 : en:Chapter 03
00:32:05.000 : en:Chapter 04
00:40:32.000 : en:Chapter 05
00:48:57.000 : en:Chapter 06
01:00:21.000 : en:Chapter 07
01:11:31.000 : en:Chapter 08
01:18:35.000 : en:Chapter 09

Скриншоты


[Profile]  [PM] 
Display posts:    
Reply to topic

Current time is: 21-Jul 22:45

All times are UTC + 2



You cannot post new topics in this forum
You cannot reply to topics in this forum
You cannot edit your posts in this forum
You cannot delete your posts in this forum
You cannot vote in polls in this forum
You cannot attach files in this forum
You cannot download files in this forum