15 минут славы / 15 minutes (Джон Херцфелд / John Herzfeld) [2001, США, Германия, боевик, триллер, HDRip-AVC] Dub (Мосфильм / iTunes) + Original Eng

Reply to topic
 
Author
Message

Wolf ®

Gender: Unknown

Longevity: 14 years

Posts: 3483

Reputation: 0 [+] [-]

Wolf · Post 22-Jun-2023 05:10

[Quote] 

15 минут славы / 15 minutes
Страна: США, Германия
Жанр: боевик, триллер
Год выпуска: 2001
Продолжительность: 02:00:39
Перевод: Профессиональный (дублированный) Мосфильм / iTunes
Субтитры: нет
Оригинальная аудиодорожка: английский
Режиссер: Джон Херцфелд / John Herzfeld
В ролях: Роберт Де Ниро, Эдвард Бёрнс, Келси Грэммер, Карел Роден, Олег Тактаров, Вера Фармига, Шарлиз Терон, Владимир Машков
Описание: Эмиль и Олег, приехав в Нью-Йорк по своим бандитским делам, воруют видеокамеру и начинают снимать свои криминальные похождения. Очень скоро они переходят от незначительных преступлений к поражающим своей жестокостью убийствам. Желая продемонстрировать свои «подвиги» наибольшему количеству зрителей, они продают видеозаписи на телевидение. Передача, которая решилась пустить это в эфир, моментально становится самой высокорейтинговой, а наши герои - новыми звёздами экрана. Но полицейские тоже смотрят телевизор и тоже не прочь прославиться на всю Америку, пристрелив убийц в прямом эфире...
Доп. информация:
Видеоряд с украинского трекера Гуртом.
Дублированная дорожка с качественным звуком взята отсюда https://torrentsland.com.ua/forum/viewtopic.php?t=6374633.
Рипов с ней на трекере нет.
Сэмпл: https://www.sendspace.com/file/lov90c
Качество видео: HDRip-AVC
Формат видео: MKV
Видео: 1024x432, 23.976 fps, AVC, 1949 Kbps
Аудио 1: 48 KHz, AC3, 6 ch, 384 Kbps - Dub
Аудио 2: 48 KHz, AC3, 2 ch, 192 Kbps - Original Eng

MediaInfo

GeneralUnique ID                                : 219139423162574157562595419226182624789 (0xA4DCB7BB9C373B9995C745E83CB5A615)Complete name                            : C:\Users\Sergei\Downloads\15 минут славы (Dub + Eng).mkvFormat                                   : MatroskaFormat version                           : Version 2File size                                : 2.13 GiBDuration                                 : 2h 0mnOverall bit rate                         : 2 526 KbpsEncoded date                             : UTC 2023-06-20 15:54:20Writing application                      : mkvmerge v5.4.0 ('Piper') built on Mar 10 2012 13:34:39Writing library                          : libebml v1.2.3 + libmatroska v1.3.0
VideoID : 1Format : AVCFormat/Info : Advanced Video CodecFormat profile : High@L4.1Format settings, CABAC : YesFormat settings, ReFrames : 8 framesCodec ID : V_MPEG4/ISO/AVCDuration : 2h 0mnBit rate : 1 949 KbpsWidth : 1 024 pixelsHeight : 432 pixelsDisplay aspect ratio : 2.40:1Frame rate mode : ConstantFrame rate : 23.976 (24000/1001) fpsColor space : YUVChroma subsampling : 4:2:0Bit depth : 8 bitsScan type : ProgressiveBits/(Pixel*Frame) : 0.184Stream size : 1.60 GiB (75%)Writing library : x264 core 146 r2538 121396cEncoding settings : cabac=1 / ref=8 / deblock=1:-1:-1 / analyse=0x3:0x133 / me=umh / subme=9 / psy=1 / psy_rd=0.99:0.05 / mixed_ref=1 / me_range=32 / chroma_me=1 / trellis=2 / 8x8dct=1 / cqm=0 / deadzone=21,11 / fast_pskip=0 / chroma_qp_offset=-3 / threads=12 / lookahead_threads=1 / sliced_threads=0 / nr=0 / decimate=0 / interlaced=0 / bluray_compat=0 / constrained_intra=0 / bframes=6 / b_pyramid=2 / b_adapt=2 / b_bias=0 / direct=3 / weightb=1 / open_gop=0 / weightp=2 / keyint=240 / keyint_min=23 / scenecut=40 / intra_refresh=0 / rc=2pass / mbtree=0 / bitrate=1949 / ratetol=1.0 / qcomp=0.60 / qpmin=0 / qpmax=69 / qpstep=4 / cplxblur=20.0 / qblur=0.5 / ip_ratio=1.40 / pb_ratio=1.30 / aq=1:1.00Language : EnglishDefault : YesForced : NoStatistics Tags Issue : mkvmerge v46.0.0 ('No Deeper Escape') 64-bit 2020-09-21 16:42:10 / mkvmerge v5.4.0 ('Piper') built on Mar 10 2012 13:34:39 2023-06-20 15:54:20FromStats_BitRate : 1947748FromStats_Duration : 02:00:39.024000000FromStats_FrameCount : 173563FromStats_StreamSize : 1762474757
Audio #1ID : 2Format : AC-3Format/Info : Audio Coding 3Mode extension : CM (complete main)Format settings, Endianness : BigCodec ID : A_AC3Duration : 2h 0mnBit rate mode : ConstantBit rate : 384 KbpsChannel(s) : 6 channelsChannel positions : Front: L C R, Side: L R, LFESampling rate : 48.0 KHzFrame rate : 31.250 fps (1536 spf)Compression mode : LossyStream size : 331 MiB (15%)Title : DubLanguage : RussianDefault : YesForced : No
Audio #2ID : 3Format : AC-3Format/Info : Audio Coding 3Mode extension : CM (complete main)Format settings, Endianness : BigCodec ID : A_AC3Duration : 2h 0mnBit rate mode : ConstantBit rate : 192 KbpsChannel(s) : 2 channelsChannel positions : Front: L RSampling rate : 48.0 KHzFrame rate : 31.250 fps (1536 spf)Compression mode : LossyStream size : 166 MiB (8%)Language : EnglishDefault : NoForced : No
Menu00:00:00.000 : en:00:02:50.410 : en:00:06:58.400 : en:00:09:26.000 : en:00:15:25.200 : en:00:21:17.830 : en:00:28:46.000 : en:00:32:29.000 : en:00:39:45.500 : en:00:42:23.000 : en:00:45:42.000 : en:00:55:11.000 : en:01:00:32.200 : en:01:04:52.000 : en:01:14:28.000 : en:01:19:34.000 : en:01:27:33.000 : en:01:33:48.800 : en:01:38:00.000 : en:01:43:22.000 : en:01:52:38.000 : en:01:53:57.000 : en:

Скриншоты

[Profile]  [PM] 
Display posts:    
Reply to topic

Current time is: 20-Jul 03:46

All times are UTC + 2



You cannot post new topics in this forum
You cannot reply to topics in this forum
You cannot edit your posts in this forum
You cannot delete your posts in this forum
You cannot vote in polls in this forum
You cannot attach files in this forum
You cannot download files in this forum