Проклятые / Blessed (Саймон Феллоуз / Simon Fellows) [2004, Румыния, Великобритания, ужасы, триллер, драма, DVDRemux] [Fullscreen] MVO + DVO + Sub (Rus, Eng) + Original Eng

Reply to topic
 
Author
Message

Wolf ®

Gender: Unknown

Longevity: 14 years

Posts: 3483

Reputation: 0 [+] [-]

Wolf · Post 22-Jun-2023 05:10

[Quote] 

Проклятые / Blessed / Fullscreen
Страна: Румыния, Великобритания
Жанр: ужасы, триллер, драма
Год выпуска: 2004
Продолжительность: 01:30:13
Перевод 1: Профессиональный (многоголосый закадровый)
Перевод 2: Профессиональный (двухголосый закадровый)
Субтитры: русские, английские
Оригинальная аудиодорожка: английский
Режиссер: Саймон Феллоуз / Simon Fellows
В ролях: Хизер Грэм, Джеймс Пьюрфой, Фионнула Флэнеган, Алан МакКенна, Майкл Дж. Рейнольдс, Дебора Уэстон, Стелла Стивенс, Уильям Хуткинс, Энди Серкис, Дэвид Хеммингз
Описание: Саманта и ее муж Грэг находят счастье в уютном городке Лэйквью, где исполнилась их давняя заветная мечта - после процедуры в местном элитарном мединституте Саманте удается зачать двойню.
Владелец клиники, харизматичный магнат Ирл Сидни, берет пару под свое крыло, которую не настораживают ни его увлечение демоническими мифами, ни тревожные ощущения, которые испытывает Саманта.
И только одна шокирующая новость заставляет будущую мать задуматься, в чьих руках она оказалась: оказывается, в институте занимаются рискованными экспериментами по клонированию. Вскоре странные события заставляют Саманту предположить самое невероятное: возможно, теперь она носит в себе семя самого сатаны…
Доп. информация: Fullscreen версия
Сэмпл: https://www.sendspace.com/file/mtymve
Качество видео: DVDRemux
Формат видео: MKV
Видео: MPEG2, 720x576(4:3)@768x576, 25 fps, ~5107 kbps
Аудио 1: 48.0 kHz, AC3, 6 ch, 384 Kbps - Русский (MVO)
Аудио 2: 48.0 kHz, AC3, 2 ch, 192 Kbps - Русский (DVO)
Аудио 3: 48.0 kHz, AC3, 2 ch, 192 Kbps - Английский
Формат субтитров: softsub (SRT)

MediaInfo

GeneralUnique ID                   : 173381282050014284406656417612468406911 (0x82700531B3A013E1B1EFE96647954A7F)Complete name               : D:Blessed (2004) Fullscreen.mkvFormat                      : MatroskaFormat version              : Version 4File size                   : 3.70 GiBDuration                    : 1 h 30 minOverall bit rate mode       : VariableOverall bit rate            : 5 875 kb/sEncoded date                : UTC 2023-06-20 14:09:24Writing application         : mkvmerge v8.3.0 ('Over the Horizon') 32bitWriting library             : libebml v1.3.1 + libmatroska v1.4.2
VideoID : 1Format : MPEG VideoFormat version : Version 2Format profile : Main@MainFormat settings : CustomMatrix / BVOPFormat settings, BVOP : YesFormat settings, Matrix : CustomFormat settings, GOP : M=2, N=12Format settings, picture st : FrameCodec ID : V_MPEG2Codec ID/Info : MPEG 1 or 2 VideoDuration : 1 h 30 minBit rate mode : VariableBit rate : 5 107 kb/sMaximum bit rate : 9 780 kb/sWidth : 720 pixelsHeight : 576 pixelsDisplay aspect ratio : 4:3Frame rate mode : ConstantFrame rate : 25.000 FPSStandard : PALColor space : YUVChroma subsampling : 4:2:0Bit depth : 8 bitsScan type : InterlacedScan order : Top Field FirstCompression mode : LossyBits/(Pixel*Frame) : 0.493Time code of first frame : 00:59:59:10Time code source : Group of pictures headerGOP, Open/Closed : OpenGOP, Open/Closed of first f : ClosedStream size : 3.22 GiB (87%)Language : EnglishDefault : YesForced : No
Audio #1ID : 2Format : AC-3Format/Info : Audio Coding 3Commercial name : Dolby DigitalCodec ID : A_AC3Duration : 1 h 29 minBit rate mode : ConstantBit rate : 384 kb/sChannel(s) : 6 channelsChannel layout : L R C LFE Ls RsSampling rate : 48.0 kHzFrame rate : 31.250 FPS (1536 SPF)Compression mode : LossyStream size : 246 MiB (6%)Title : MVOLanguage : RussianService kind : Complete MainDefault : YesForced : No
Audio #2ID : 3Format : AC-3Format/Info : Audio Coding 3Commercial name : Dolby DigitalCodec ID : A_AC3Duration : 1 h 30 minBit rate mode : ConstantBit rate : 192 kb/sChannel(s) : 2 channelsChannel layout : L RSampling rate : 48.0 kHzFrame rate : 31.250 FPS (1536 SPF)Compression mode : LossyStream size : 124 MiB (3%)Title : DVOLanguage : RussianService kind : Complete MainDefault : NoForced : No
Audio #3ID : 4Format : AC-3Format/Info : Audio Coding 3Commercial name : Dolby DigitalCodec ID : A_AC3Duration : 1 h 30 minBit rate mode : ConstantBit rate : 192 kb/sChannel(s) : 2 channelsChannel layout : L RSampling rate : 48.0 kHzFrame rate : 31.250 FPS (1536 SPF)Compression mode : LossyStream size : 124 MiB (3%)Language : EnglishService kind : Complete MainDefault : NoForced : No
Text #1ID : 5Format : UTF-8Codec ID : S_TEXT/UTF8Codec ID/Info : UTF-8 Plain TextDuration : 1 h 26 minBit rate : 81 b/sCount of elements : 878Stream size : 51.5 KiB (0%)Language : RussianDefault : NoForced : No
Text #2ID : 6Format : UTF-8Codec ID : S_TEXT/UTF8Codec ID/Info : UTF-8 Plain TextDuration : 1 h 22 minBit rate : 48 b/sCount of elements : 1258Stream size : 29.4 KiB (0%)Language : EnglishDefault : NoForced : No
Menu00:00:00.000 : en:Chapter 0100:08:31.680 : en:Chapter 0200:17:19.680 : en:Chapter 0300:25:08.640 : en:Chapter 0400:35:06.720 : en:Chapter 0500:47:18.360 : en:Chapter 0600:54:41.400 : en:Chapter 0701:11:31.800 : en:Chapter 08

Сравнения



Скриншоты

[Profile]  [PM] 
Display posts:    
Reply to topic

Current time is: 21-Jul 22:44

All times are UTC + 2



You cannot post new topics in this forum
You cannot reply to topics in this forum
You cannot edit your posts in this forum
You cannot delete your posts in this forum
You cannot vote in polls in this forum
You cannot attach files in this forum
You cannot download files in this forum