Расскажи это пчёлам / Tell it to the bees (Аннабел Дженкел / Annabel Jankel) [2018, Великобритания, Швеция, драма, мелодрама, экранизация, лесби-тема, WEB-DLRip-AVC] MVO (Синема УС) + Original Eng + Sub Eng

Reply to topic
 
Author
Message

Satyr ®

Gender: Unknown

Longevity: 15 years

Posts: 22031

Reputation: 56 [+] [-]

Satyr · Post 22-Jun-2023 05:10

[Quote] 

Расскажи это пчёлам / Tell it to the bees
Страна: Великобритания, Швеция
Год выпуска: 2018
Жанр: драма, мелодрама, экранизация, лесби-тема
Продолжительность: 01:48:19
Перевод: Любительский (многоголосый закадровый) - Синема УС
Оригинальная аудиодорожка: английский
Субтитры: английские
Режиссёр: Аннабел Дженкел / Annabel Jankel
В ролях: Грегор Селкирк (Чарли), Анна Пэкуин (Джин), Холлидей Грейнджер (Лидия), Иман Эллиотт (Роберт), Лорен Лайл (Энни), Кейт Дики (Памела), Стивен Робертсон (Джим), Кейдон Макграф, Лайам Меган, Джони Сэмсон, Джоанн Галлахер
Описание: Шотландия, 1950-е годы. После смерти отца доктор Джин возвращается в родной город. Однажды к ней на приём приходит мальчик Чарли, которого в школе побили сверстники. Джин проникается сочувствием к мальчику, а его мать Лидия с благодарностью относится к новому доктору за её внимание и отзывчивость. Когда Лидия попадает в трудное финансовое положение и оказывается не в состоянии оплатить за аренду жилья, Джин приглашает их поселиться в её доме. Постепенно между двумя женщинами завязываются романтические отношения. Однако в маленьком городке царят пуританские нравы, поэтому в адрес женщин начинают сыпаться упрёки и порицания.
Фильм является экранизацией одноимённого произведения британской писательницы Фионы Шоу (Fiona Shaw).
Сэмпл: https://www.sendspace.com/file/1tfu84
Качество видео: WEB-DLRip-AVC
Формат видео: MKV
Видео: AVC; 768 x 432 (16:9); 23,976 кадров/сек; 1540 Кбит/сек
Аудио 1: AC3; 48 КГц; 2 канала; 192 Кбит/сек; MVO (Русский, Синема УС)
Аудио 2: AC3; 48 КГц; 2 канала; 192 Кбит/сек; Оригинал (Английский)
Субтитры: английские (отключаемые, SRT)

MediaInfo

Общее
Формат : Matroska
Версия формата : Version 2
Размер файла : 1,45 Гбайт
Продолжительность : 1 ч. 48 м.
Общий поток : 1923 Кбит/сек
Программа кодирования : mkvmerge v4.9.1 ('Ich will') сборка от Jul 11 2011 23:53:15
Библиотека кодирования : libebml v1.2.1 + libmatroska v1.1.1
Видео
Идентификатор : 1
Формат : AVC
Формат/Информация : Advanced Video Codec
Профиль формата : High@L3.1
Настройки формата : CABAC / 7 Ref Frames
Параметр CABAC формата : Да
Параметр RefFrames формата : 7 кадров
Идентификатор кодека : V_MPEG4/ISO/AVC
Продолжительность : 1 ч. 48 м.
Битрейт : 1540 Кбит/сек
Ширина : 768 пикселей
Высота : 432 пикселя
Соотношение сторон : 16:9
Режим частоты кадров : Постоянный
Частота кадров : 23,976 (24000/1001) кадра/сек
Цветовое пространство : YUV
Субдискретизация насыщенности : 4:2:0
Битовая глубина : 8 бит
Тип развёртки : Прогрессивная
Бит/(Пиксели*Кадры) : 0.194
Размер потока : 1,14 Гбайт (78%)
Библиотека кодирования : x264 core 155 r2901 7d0ff22
Настройки программы : cabac=1 / ref=7 / deblock=1:0:0 / analyse=0x3:0x113 / me=umh / subme=9 / psy=1 / psy_rd=1.00:0.00 / mixed_ref=1 / me_range=24 / chroma_me=1 / trellis=1 / 8x8dct=1 / cqm=0 / deadzone=21,11 / fast_pskip=1 / chroma_qp_offset=-2 / threads=13 / lookahead_threads=1 / sliced_threads=0 / nr=0 / decimate=1 / interlaced=0 / bluray_compat=0 / constrained_intra=0 / bframes=7 / b_pyramid=2 / b_adapt=1 / b_bias=0 / direct=1 / weightb=1 / open_gop=0 / weightp=2 / keyint=240 / keyint_min=23 / scenecut=40 / intra_refresh=0 / rc_lookahead=40 / rc=2pass / mbtree=1 / bitrate=1540 / ratetol=1.0 / qcomp=0.60 / qpmin=0 / qpmax=69 / qpstep=4 / cplxblur=20.0 / qblur=0.5 / ip_ratio=1.40 / aq=1:1.00
Default : Да
Forced : Нет
Аудио #1
Идентификатор : 2
Формат : AC-3
Формат/Информация : Audio Coding 3
Идентификатор кодека : A_AC3
Продолжительность : 1 ч. 48 м.
Вид битрейта : Постоянный
Битрейт : 192 Кбит/сек
Каналы : 2 канала
Расположение каналов : Front: L R
Частота : 48,0 КГц
Частота кадров : 31,250 кадров/сек (1536 SPF)
Битовая глубина : 16 бит
Метод сжатия : С потерями
Размер потока : 149 Мбайт (10%)
Заголовок : MVO (Синема УС)
Язык : Russian
ServiceKind/String : Complete Main
Default : Да
Forced : Нет
Аудио #2
Идентификатор : 3
Формат : AC-3
Формат/Информация : Audio Coding 3
Идентификатор кодека : A_AC3
Продолжительность : 1 ч. 48 м.
Вид битрейта : Постоянный
Битрейт : 192 Кбит/сек
Каналы : 2 канала
Расположение каналов : Front: L R
Частота : 48,0 КГц
Частота кадров : 31,250 кадров/сек (1536 SPF)
Битовая глубина : 16 бит
Метод сжатия : С потерями
Размер потока : 149 Мбайт (10%)
Заголовок : Original
Язык : English
ServiceKind/String : Complete Main
Default : Нет
Forced : Нет
Текст
Идентификатор : 4
Формат : UTF-8
Идентификатор кодека : S_TEXT/UTF8
Идентификатор кодека/Информация : UTF-8 Plain Text
Язык : English
Default : Нет
Forced : Нет

Скриншот c названием фильма

Если у кого есть желание ознакомиться с другими художественными и документальными фильмами , сериалами , мультфильмами и аниме, передачами по ЛГБТ-тематике , то на Рутрекере есть тема ЛГБТ в кинематографе .
[Profile]  [PM] 
Display posts:    
Reply to topic

Current time is: 20-Jul 03:46

All times are UTC + 2



You cannot post new topics in this forum
You cannot reply to topics in this forum
You cannot edit your posts in this forum
You cannot delete your posts in this forum
You cannot vote in polls in this forum
You cannot attach files in this forum
You cannot download files in this forum