Звёздные войны: Эпизод 4 - Новая надежда / Star Wars: Episode IV - A New Hope (Джордж Лукас / George Lucas) [1977, США, фантастика, боевик, фэнтези, приключения, HDRip] AVO (Лёша-прапорщик) + Original Eng

Reply to topic
 
Author
Message

Satyr ®

Gender: Unknown

Longevity: 15 years

Posts: 22045

Reputation: 56 [+] [-]

Satyr · Post 22-Jun-2023 05:10

[Quote] 

Звёздные войны: Эпизод 4 - Новая надежда / Star Wars: Episode IV - A New Hope
Страна: США
Жанр: фантастика, боевик, фэнтези, приключения
Год выпуска: 1977
Продолжительность: 02:04:44
Перевод: Авторский (одноголосый закадровый) Лёша-прапорщик
Субтитры: нет
Оригинальная аудиодорожка: английский
Режиссер: Джордж Лукас / George Lucas
В ролях: Марк Хэмилл, Харрисон Форд, Кэрри Фишер, Питер Кушинг, Алек Гиннесс, Энтони Дэниелс, Кенни Бейкер, Питер Мейхью, Дэвид Праус, Фил Браун
Описание: Грозная Империя хочет захватить владычество над всей галактикой. В плен к силам Империи попадает принцесса Лея, помочь которой вызывается Люк Скайуокер вместе со своим другом Ханом Соло и обаятельными роботами R2D2 и C3PO. (Описание с коробки VHS)
Сэмпл: http://sendfile.su/1670263
Качество видео: HDRip
Формат видео: AVI
Видео: 720x304 (2.37:1), 23.976 fps, DivX Codec 6.8.5/6.9.1 ~2115 kbps avg, 0.40 bit/pixel
Аудио: 48 kHz, AC3 Dolby Digital, 2/0 (L,R) ch, ~192 kbps
Аудио 2: 48 kHz, AC3 Dolby Digital, 2/0 (L,R) ch, ~192 kbps

MediaInfo

Формат                                   : AVIФормат/Информация                        : Audio Video InterleaveПрофиль формата                          : OpenDMLРазмер файла                             : 2,18 ГбайтПродолжительность                        : 2 ч. 4 м.Общий поток                              : 2506 Кбит/секПрограмма кодирования                    : VirtualDubMod 1.5.10.3 || (build 2550/release)Библиотека кодирования                   : VirtualDubMod build 2550/release
ВидеоИдентификатор : 0Формат : MPEG-4 VisualНастройки формата : BVOPПараметр BVOP формата : ДаПараметр QPel формата : НетПараметр GMC формата : Без точки переходаПараметр матрицы формата : Default (H.263)Идентификатор кодека : DX50Идентификатор кодека/Подсказка : DivX 5Продолжительность : 2 ч. 4 м.Битрейт : 2105 Кбит/секНоминальный битрейт : 4854 Кбит/секШирина : 720 пикселейВысота : 304 пикселяСоотношение сторон : 2,35:1Частота кадров : 23,976 (24000/1001) кадра/секЦветовое пространство : YUVСубдискретизация насыщенности : 4:2:0Битовая глубина : 8 битТип развёртки : ПрогрессивнаяМетод сжатия : С потерямиБит/(Пиксели*Кадры) : 0.401Размер потока : 1,83 Гбайт (84%)Библиотека кодирования : DivX 6.8.5 (UTC 2009-08-20)
Аудио #1Идентификатор : 1Формат : AC-3Формат/Информация : Audio Coding 3Идентификатор кодека : 2000Продолжительность : 2 ч. 4 м.Вид битрейта : ПостоянныйБитрейт : 192 Кбит/секКаналы : 2 каналаРасположение каналов : Front: L RЧастота : 48,0 КГцЧастота кадров : 31,250 кадров/сек (1536 SPF)Битовая глубина : 16 битМетод сжатия : С потерямиРазмер потока : 171 Мбайт (8%)Выравнивание : Разделение по промежуткамПродолжительность промежутка : 42 мс. (1,00 видеокадр)Время предзагрузки промежутка : 500 мс.ServiceKind/String : Complete Main
Аудио #2Идентификатор : 2Формат : AC-3Формат/Информация : Audio Coding 3Идентификатор кодека : 2000Продолжительность : 2 ч. 4 м.Вид битрейта : ПостоянныйБитрейт : 192 Кбит/секКаналы : 2 каналаРасположение каналов : Front: L RЧастота : 48,0 КГцЧастота кадров : 31,250 кадров/сек (1536 SPF)Битовая глубина : 16 битМетод сжатия : С потерямиРазмер потока : 171 Мбайт (8%)Выравнивание : Соединение по промежуткамПродолжительность промежутка : 42 мс. (1,00 видеокадр)Время предзагрузки промежутка : 512 мс.ServiceKind/String : Complete Main

Скриншоты

[Profile]  [PM] 
Display posts:    
Reply to topic

Current time is: 25-Jul 06:52

All times are UTC + 2



You cannot post new topics in this forum
You cannot reply to topics in this forum
You cannot edit your posts in this forum
You cannot delete your posts in this forum
You cannot vote in polls in this forum
You cannot attach files in this forum
You cannot download files in this forum